За последнюю неделю опубликовано 80 новых материалов.
Инструкция новичку Путеводитель по форуму Прокси для Telegram Показать подсказки , это бомба!

Скачать Фальшивка / Possession (2009) BDRip 1080p | P2 бесплатно через торрент

  • Поучаствуй (в качестве покупателя) в любых пяти совместных покупках (кроме завершённых и "Моментальных") и получи группу "Новичок" навсегда -> ссылка на раздел
  • Получай до 480 рублей за каждого приглашенного пользователя!
    представляем Вам очередное расширение партнерской программы, подробности описаны тут -> ссылка
  • 90% материалов доступно к скачиванию после простой регистрации!
    Если же ты хочешь скачивать материалы без требования оставлять отзывы то получи группу "Новичок", 10 способов повышения описаны тут -> ссылка
  • К сожалению количество битых ссылок растет и мы уже не можем их оперативно восстанавливать поэтому просим помощи у каждого нашего пользователя.
    С сегодняшнего дня, за каждую восстановленную ссылку мы заплатим Вам.
    Подробнее тут -> ссылка
  • Перенесем твои заслуги с другого ресурса!
    Мы понимаем как сложно прокачивать аккаунты на форумах, вроде раскачал аккаунт, а тут появляется ресурс в 100 раз круче но тоже с системой прокачки и снова качать аккаунт...
    Предлагаем вам перенести Ваши заслуги на другом подобном ресурсе к нам.
    Подробности описаны тут -> ссылка
  • Вы можете получать по 2.5% с каждой покупки и продажи на маркете! Подробности в теме Партнёрская программа
Если Вы не хотите скачивать, Вы всегда можетепосмотретьонлайн, просто нажмите кнопку ниже :

Открыть плеер

Torrent_Bot

Торрент-Бот
Бот форума
4 Окт 2016
104
152
20
Информация о фильме
Название: Фальшивка
Оригинальное название: Possession
Год выхода: 2009
Жанр: Триллер, мелодрама, детектив
Режиссер: Джоэль Бергвэлл, Саймон Сэндквист
В ролях: Сара Мишель Геллар, Ли Пейс, Майкл Лэндис, Уильям Б. Дэвис, Чела Хорсдэл, Тува Новотны, Сюзанн Бастьен, Пол Джарретт, Майкл Йонсон, Кристи Белла Джойнер, Марк Луи, Сюзанн Бастьен, Дрю Скотт

О фильме:
Жизнь Джесс превратилась в хаос после того, как в результате автомобильной катастрофы муж и шурин оказываются в коме. События принимают более темный оборот после того, как шурин просыпается, думая, что он - свой брат. Поскольку Джесс соприкасается с этими все более и более тревожащими событиями, она пытается понять, что это или дух ее мужа возвратился к ней или тут кое-что еще более зловещее скрывается.



Страна: США
Студия: Yari Film Group, Spitfire Pictures
Продолжительность: 01:25:32
Перевод: Профессиональный двухголосый | студия Elrom

Файл
Кодек: x.264
Качество: BDRip 1080p | Possession.2009.1080p.Bluray.X264-DIMENSION
Видео: MPEG-4 AVC, 1920x800, 11.8 Mбит/с, 23.976 кадр/с
Звук:
Аудио #1: Русский ( АС3, 2ch, 224 Кбит/с, 48.0 KHz) Профессиональный (двухголосый, закадровый) Студия Elrom
Аудио #2: Английский ( АС3, 6ch, 384 Кбит/с, 48.0 KHz)
Субтитры: русские, английские
MediaInfo
Источник: Possession.2009.1080p.Bluray.X264-DIMENSION
General
Unique ID : 236104316886234725045585519684746613809 (0xB1A0099253D1CBAEA405DDF814061431)
Complete name : Possession.2009.BDRip.1080p.mkv
Format : Matroska
Format version : Version 4 / Version 2
File size : 7.41 GiB
Duration : 1 h 25 min
Overall bit rate : 12.4 Mb/s
Encoded date : UTC 2018-08-24 20:33:27
Writing application : mkvmerge v7.1.0 ('Good Love') 64bit built on Jul 27 2014 13:06:55
Writing library : libebml v1.3.0 + libmatroska v1.4.1

Video
ID : 1
Format : AVC
Format/Info : Advanced Video Codec
Format profile : High@L4.1
Format settings : CABAC / 5 Ref Frames
Format settings, CABAC : Yes
Format settings, ReFrames : 5 frames
Codec ID : V_MPEG4/ISO/AVC
Duration : 1 h 25 min
Bit rate : 11.8 Mb/s
Width : 1 920 pixels
Height : 800 pixels
Display aspect ratio : 2.40:1
Frame rate mode : Constant
Frame rate : 23.976 FPS
Color space : YUV
Chroma subsampling : 4:2:0
Bit depth : 8 bits
Scan type : Progressive
Bits/(Pixel*Frame) : 0.320
Stream size : 7.04 GiB (95%)
Writing library : x264 core 88 r1471 1144615
Encoding settings : cabac=1 / ref=5 / deblock=1:-1:-1 / analyse=0x3:0x113 / me=umh / subme=8 / psy=1 / psy_rd=1.00:0.00 / mixed_ref=1 / me_range=16 / chroma_me=1 / trellis=1 / 8x8dct=1 / cqm=0 / deadzone=21,11 / fast_pskip=0 / chroma_qp_offset=-2 / threads=6 / sliced_threads=0 / nr=0 / decimate=1 / mbaff=0 / constrained_intra=0 / bframes=3 / b_pyramid=2 / b_adapt=1 / b_bias=0 / direct=3 / wpredb=1 / wpredp=2 / keyint=250 / keyint_min=25 / scenecut=40 / intra_refresh=0 / rc_lookahead=40 / rc=2pass / mbtree=1 / bitrate=11770 / ratetol=1.0 / qcomp=0.60 / qpmin=10 / qpmax=51 / qpstep=4 / cplxblur=20.0 / qblur=0.5 / ip_ratio=1.40 / aq=1:1.10
Language : English
Default : Yes
Forced : No

Audio #1
ID : 2
Format : AC-3
Format/Info : Audio Coding 3
Commercial name : Dolby Digital
Codec ID : A_AC3
Duration : 1 h 25 min
Bit rate mode : Constant
Bit rate : 224 kb/s
Channel(s) : 2 channels
Channel layout : L R
Sampling rate : 48.0 kHz
Frame rate : 31.250 FPS (1536 SPF)
Bit depth : 16 bits
Compression mode : Lossy
Stream size : 137 MiB (2%)
Title : студия Elrom
Language : Russian
Service kind : Complete Main
Default : Yes
Forced : No

Audio #2
ID : 3
Format : AC-3
Format/Info : Audio Coding 3
Commercial name : Dolby Digital
Codec ID : A_AC3
Duration : 1 h 25 min
Bit rate mode : Constant
Bit rate : 384 kb/s
Channel(s) : 6 channels
Channel layout : L R C LFE Ls Rs
Sampling rate : 48.0 kHz
Frame rate : 31.250 FPS (1536 SPF)
Bit depth : 16 bits
Compression mode : Lossy
Stream size : 235 MiB (3%)
Language : English
Service kind : Complete Main
Default : No
Forced : No

Text #1
ID : 4
Format : UTF-8
Codec ID : S_TEXT/UTF8
Codec ID/Info : UTF-8 Plain Text
Duration : 1 h 20 min
Bit rate : 48 b/s
Count of elements : 590
Stream size : 28.7 KiB (0%)
Language : Russian
Default : No
Forced : No

Text #2
ID : 5
Format : UTF-8
Codec ID : S_TEXT/UTF8
Codec ID/Info : UTF-8 Plain Text
Duration : 1 h 22 min
Bit rate : 28 b/s
Count of elements : 657
Stream size : 17.2 KiB (0%)
Language : English
Default : No
Forced : No

Menu
00:00:00.000 : en:00:00:00.000
00:06:45.250 : en:00:06:45.250
00:14:58.167 : en:00:14:58.167
00:24:20.750 : en:00:24:20.750
00:32:06.083 : en:00:32:06.083
00:40:38.792 : en:00:40:38.792
00:50:46.958 : en:00:50:46.958
00:54:22.125 : en:00:54:22.125
01:04:58.042 : en:01:04:58.042
01:12:20.833 : en:01:12:20.833
01:17:58.375 : en:01:17:58.375
01:23:23.208 : en:01:23:23.208
Скриншоты
 

Вложения

  • 19,4 KB Просмотры: 1
    Личеров 0
    Сидеров 0
    Файлов 1
    Объем 7,4 GB

Привет!

Мы группа людей которые решили помочь другим в решении их проблем, а так же пользователям с поиском самых свежих и качественных инфопродуктов. За 4 с небольшим месяца мы создали этот форум на который заходят ежедневно тысячи человек и посещаемость постоянно растёт. Мы создали панель лицензирования для защиты PHP скриптов от воровства и SEO панель для мониторинга наших сайтов и выбора верной стратегии их развития. Мы надеемся что то что мы создали пригодится Вам и возможно Вы поможете нам развиваться и совершенствоваться вместе с Вами.

Статистика форума

Темы
404.531
Сообщения
461.403
Пользователи
80.039
Новый пользователь
kred

Приложения форума для iOS и Android


У ркн там нет власти ;)
Приватные разговоры
Помощь Пользователи
    Вы не присоединились ни к одной комнате.