За последнюю неделю опубликовано 32 новых материалов.
Инструкция новичку Путеводитель по форуму Прокси для Telegram Показать подсказки , это бомба!

Скачать Европейцы / The Europeans (1979) BDRemux 1080p | P бесплатно через торрент

  • Поучаствуй (в качестве покупателя) в любых пяти совместных покупках (кроме завершённых и "Моментальных") и получи группу "Новичок" навсегда -> ссылка на раздел
  • Получай до 480 рублей за каждого приглашенного пользователя!
    представляем Вам очередное расширение партнерской программы, подробности описаны тут -> ссылка
  • 90% материалов доступно к скачиванию после простой регистрации!
    Если же ты хочешь скачивать материалы без требования оставлять отзывы то получи группу "Новичок", 10 способов повышения описаны тут -> ссылка
  • К сожалению количество битых ссылок растет и мы уже не можем их оперативно восстанавливать поэтому просим помощи у каждого нашего пользователя.
    С сегодняшнего дня, за каждую восстановленную ссылку мы заплатим Вам.
    Подробнее тут -> ссылка
  • Перенесем твои заслуги с другого ресурса!
    Мы понимаем как сложно прокачивать аккаунты на форумах, вроде раскачал аккаунт, а тут появляется ресурс в 100 раз круче но тоже с системой прокачки и снова качать аккаунт...
    Предлагаем вам перенести Ваши заслуги на другом подобном ресурсе к нам.
    Подробности описаны тут -> ссылка
  • Вы можете получать по 2.5% с каждой покупки и продажи на маркете! Подробности в теме Партнёрская программа
Если Вы не хотите скачивать, Вы всегда можетепосмотретьонлайн, просто нажмите кнопку ниже :

Открыть плеер

Torrent_Bot

Торрент-Бот
Бот форума
4 Окт 2016
93
160
20



Информация о фильме
Название: Европейцы
Оригинальное название: The Europeans
Год выхода: 1979
Жанр: Драма, мелодрама
Режиссер: Джеймс Айвори
В ролях: Ли Ремик, Робин Эллис, Уэсли Эдди, Тим Чоут, Лиза Айкхорн, Кристин Гриффит, Нэнси Нью, Норман Сноу, Хелен Стенборг, Тим Вудворд, Джеймс Айвори, Джеда Петри и др.

Описание: Середина XIX века. К проживающему в окрестностях Бостона мистеру Вентворту приезжают гости из Европы — Евгения и Феликс, дети его сводной сестры. А его дочь Гертруда оказывается так очарована манерами Феликса, что отвергает ухаживания мистера Брэнда, местного члена правительства. А к Евгении неравнодушен преуспевающий мистер Эктон, но она все еще не успела развестись со своим мужем -аристократом из Старого Света. Однако вскоре у американцев появляются сомнения в искренности намерений европейских гостей.



Страна: Великобритания
Продолжительность: 01:31:10
Перевод: профессиональный (многоголосый закадровый) Другое кино
Субтитры: английские
Оригинальная аудиодорожка: английский

Файл
Качество: BDRemux 1080p
Видео: MPEG-4 AVC / 1920x1080 / 16:9 / 24.000 fps / 30000 kbps / [email protected]
Аудио 1: Russian / AC3 / 48.0 KHz / 2.0 / 192 kbps
Аудио 2: English / DTS-HD MA / 48.0 KHz / 2.0 / 1557 kbps / 16 bit (DTS Core 48.0 KHz / 2.0 / 1509 kbps / 16 bit)

Скриншоты
MediaInfo
Общее
Уникальный идентификатор : 304748086193365531541118585276826963205 (0xE54458B238CEF9EB72F08566CE10CD05)
Полное имя : porvaliparus 2020The.Europeans.1979.4K.Remastered.BDRemux.1080p.mkv
Формат : Matroska
Версия формата : Version 4 / Version 2
Размер файла : 20,2 Гбайт
Продолжительность : 1 ч. 31 м.
Режим общего битрейта : Переменный
Общий поток : 31,8 Мбит/сек
Название фильма : The.Europeans.1979.4K.Remastered.BDRemux.1080p-porvaliparus
Дата кодирования : UTC 2020-06-11 09:07:04
Программа кодирования : mkvmerge v46.0.0 ('No Deeper Escape') 64-bit
Библиотека кодирования : libebml v1.3.10 + libmatroska v1.5.2

Видео
Идентификатор : 1
Формат : AVC
Формат/Информация : Advanced Video Codec
Профиль формата : [email protected]
Параметр CABAC формата : Да
Параметр ReFrames формата : 4 кадра
Идентификатор кодека : V_MPEG4/ISO/AVC
Продолжительность : 1 ч. 31 м.
Вид битрейта : Переменный
Битрейт : 30,0 Мбит/сек
Максимальный битрейт : 35,0 Мбит/сек
Ширина : 1920 пикселей
Высота : 1080 пикселей
Соотношение сторон : 16:9
Режим частоты кадров : Постоянный
Частота кадров : 24,000 кадра/сек
Стандарт вещания : NTSC
Цветовое пространство : YUV
Субдискретизация насыщенности : 4:2:0
Битовая глубина : 8 бит
Тип развёртки : Прогрессивная
Бит/(Пиксели*Кадры) : 0.603
Размер потока : 19,1 Гбайт (94%)
Заголовок : The.Europeans.1979.4K.Remastered.BDRemux.1080p
Default : Нет
Forced : Да
Цветовой диапазон : Limited
Основные цвета : BT.709
Характеристики трансфера : BT.709
Коэффициенты матрицы : BT.709

Аудио #1
Идентификатор : 2
Формат : AC-3
Формат/Информация : Audio Coding 3
Параметр Endianness формата : Big
Идентификатор кодека : A_AC3
Продолжительность : 1 ч. 31 м.
Вид битрейта : Постоянный
Битрейт : 192 Кбит/сек
Каналы : 2 канала
Расположение каналов : Front: L R
Частота : 48,0 КГц
Частота кадров : 31,250 кадров/сек (1536 spf)
Битовая глубина : 16 бит
Метод сжатия : С потерями
Размер потока : 125 Мбайт (1%)
Заголовок : MVO [Другое кино]
Язык : Russian
ServiceKind : Complete Main
Default : Да
Forced : Нет

Аудио #2
Идентификатор : 3
Формат : DTS
Формат/Информация : Digital Theater Systems
Профиль формата : MA / Core
Режим : 16
Параметр Endianness формата : Big
Идентификатор кодека : A_DTS
Продолжительность : 1 ч. 31 м.
Вид битрейта : Переменный / Постоянный
Битрейт : 1536 Кбит/сек / 1509 Кбит/сек
Каналы : 2 канала
Расположение каналов : Front: L R
Частота : 48,0 КГц
Частота кадров : 93,750 кадра/сек (512 spf)
Битовая глубина : 16 бит
Метод сжатия : Без потерь / Lossy
Размер потока : 1015 Мбайт (5%)
Язык : English
Default : Нет
Forced : Нет

Текст
Идентификатор : 4
Формат : UTF-8
Идентификатор кодека : S_TEXT/UTF8
Идентификатор кодека/Информация : UTF-8 Plain Text
Продолжительность : 1 ч. 25 м.
Битрейт : 52 бит/сек
ElementCount : 872
Размер потока : 32,7 Кбайт (0%)
Язык : English
Default : Нет
Forced : Нет

Меню
00:00:00.000 : en:01
00:11:24.917 : en:02
00:20:17.292 : en:03
00:29:59.375 : en:04
00:41:49.083 : en:05
00:52:19.000 : en:06
01:01:54.250 : en:07
01:11:52.583 : en:08
01:20:49.458 : en:09
 

Вложения

  • 51,5 KB Просмотры: 0
    Личеров 0
    Сидеров 0
    Файлов 1
    Объем 20,2 GB

Привет!

Мы группа людей которые решили помочь другим в решении их проблем, а так же пользователям с поиском самых свежих и качественных инфопродуктов. За 4 с небольшим месяца мы создали этот форум на который заходят ежедневно тысячи человек и посещаемость постоянно растёт. Мы создали панель лицензирования для защиты PHP скриптов от воровства и SEO панель для мониторинга наших сайтов и выбора верной стратегии их развития. Мы надеемся что то что мы создали пригодится Вам и возможно Вы поможете нам развиваться и совершенствоваться вместе с Вами.

Статистика форума

Темы
406.616
Сообщения
465.078
Пользователи
84.484
Новый пользователь
Beatlman

Приложения форума для iOS и Android


У ркн там нет власти ;)
Приватные разговоры
Помощь Пользователи
    Вы не присоединились ни к одной комнате.