За последнюю неделю опубликовано 103 новых материалов.
Инструкция новичку Путеводитель по форуму Прокси для Telegram Показать подсказки , это бомба!

Скачать Евгений Мартынов - Золотая коллекция Ретро (2007) APE by гаврила бесплатно через торрент

  • Поучаствуй (в качестве покупателя) в любых пяти совместных покупках (кроме завершённых и "Моментальных") и получи группу "Новичок" навсегда -> ссылка на раздел
  • Получай до 480 рублей за каждого приглашенного пользователя!
    представляем Вам очередное расширение партнерской программы, подробности описаны тут -> ссылка
  • 90% материалов доступно к скачиванию после простой регистрации!
    Если же ты хочешь скачивать материалы без требования оставлять отзывы то получи группу "Новичок", 10 способов повышения описаны тут -> ссылка
  • К сожалению количество битых ссылок растет и мы уже не можем их оперативно восстанавливать поэтому просим помощи у каждого нашего пользователя.
    С сегодняшнего дня, за каждую восстановленную ссылку мы заплатим Вам.
    Подробнее тут -> ссылка
  • Перенесем твои заслуги с другого ресурса!
    Мы понимаем как сложно прокачивать аккаунты на форумах, вроде раскачал аккаунт, а тут появляется ресурс в 100 раз круче но тоже с системой прокачки и снова качать аккаунт...
    Предлагаем вам перенести Ваши заслуги на другом подобном ресурсе к нам.
    Подробности описаны тут -> ссылка
  • Вы можете получать по 2.5% с каждой покупки и продажи на маркете! Подробности в теме Партнёрская программа

Torrent_Bot

Торрент-Бот
Бот форума
4 Окт 2016
124
96
20
Трэклист:
1. Яблони в цвету (И.Резник)
2. Этот май (Т.Коршилова)
3. Чайки над водой (А.Дементьев)
4. Ты приносишь мне рассвет (А.Дементьев)
5. На качелях (О.Гаджикасимов)
6. Трава-лебеда (Н.Добронравов)
7. Верую в тебя (А.Вознесенский)
8. Начни сначала (А.Вознесенский)
9. А я без Волги просто не могу (А.Дементьев)
10. Марш - воспоминание (Р.Рождественский)
11. Песня о моей любви (С.Островой)
12. Отчий дом (А.Дементьев)
13. Эхо первой любви (Р.Рождественский)
14. Лебединая верность (А.Дементьев)
15. Свадебный вальс (Р.Рождественский)
16. Натали (А.Дементьев)
17. Земля цветов (И.Шаферан)
18. У Есенина день рождения (А.Дементьев)
19. Я жду весну (А.Дементьев)
20. Звучи, любовь! (Р.Рождественский)

Жанр:Retro
Год выпуска диска: 2007
Производитель диска: Россия
Аудио кодек: APE
Тип рипа: image+.cue
Битрейт аудио: lossless
Продолжительность: 77м 31с

Exact Audio Copy V0.99 prebeta 4 from 23. January 2008
Отчёт EAC об извлечении, выполненном 15. сентября 2008, 23:03
Евгений Мартынов / Золотая коллекция ретро
Дисковод: Optiarc DVD RW AD-5170A Adapter: 0 ID: 0
Режим чтения : Достоверность
Использование точного потока : Да
Отключение кэша аудио : Да
Использование указателей C2 : Нет
Коррекция смещения при чтении : 48
Способность читать области Lead-in и Lead-out : Нет
Заполнение пропущенных сэмплов тишиной : Да
Удаление блоков с тишиной в начале и конце : Нет
При вычислениях CRC использовались нулевые сэмплы : Да
Интерфейс : Встроенный Win32-интерфейс для Win NT/2000
Выходной формат : Внутренние WAV-операции
Формат сэмплов : 44.100 Гц; 16 бит; стерео
TOC извлечённого CD
Трек | Старт | Длительность | Начальный сектор | Конечный сектор
---------------------------------------------------------------------
1 | 0:00.00 | 3:39.69 | 0 | 16493
2 | 3:39.69 | 3:35.51 | 16494 | 32669
3 | 7:15.45 | 3:38.20 | 32670 | 49039
4 | 10:53.65 | 2:44.12 | 49040 | 61351
5 | 13:38.02 | 4:28.08 | 61352 | 81459
6 | 18:06.10 | 3:40.60 | 81460 | 98019
7 | 21:46.70 | 3:57.59 | 98020 | 115853
8 | 25:44.54 | 3:36.08 | 115854 | 132061
9 | 29:20.62 | 3:32.04 | 132062 | 147965
10 | 32:52.66 | 4:16.53 | 147966 | 167218
11 | 37:09.44 | 3:31.00 | 167219 | 183043
12 | 40:40.44 | 4:33.65 | 183044 | 203583
13 | 45:14.34 | 3:36.41 | 203584 | 219824
14 | 48:51.00 | 4:50.32 | 219825 | 241606
15 | 53:41.32 | 3:22.37 | 241607 | 256793
16 | 57:03.69 | 5:08.66 | 256794 | 279959
17 | 62:12.60 | 3:41.63 | 279960 | 296597
18 | 65:54.48 | 4:01.60 | 296598 | 314732
19 | 69:56.33 | 2:56.44 | 314733 | 327976
20 | 72:53.02 | 4:35.74 | 327977 | 348675
Характеристики диапазона извлечения и сообщения об ошибках
Выбранный диапазон
Имя файла D:AudioЕ.МартыновЕвгений Мартынов - Золотая коллекция ретро.wav
Пиковый уровень 98.8 %
Качество диапазона 99.8 %
CRC копии 5020F50D
Копирование... OK
Ошибок не произошло
Конец отчёта
 

Вложения

  • 11,7 KB Просмотры: 1
    Личеров 0
    Сидеров 0
    Файлов 10
    Объем 514,8 MB
Ваш e-mail не будет опубликован. Он потребуется для подтверждения Вашего поста.
Оформление текста Нажмите «Ввод», чтобы отправить ответ.

Привет!

Мы группа людей которые решили помочь другим в решении их проблем, а так же пользователям с поиском самых свежих и качественных инфопродуктов. За 4 с небольшим месяца мы создали этот форум на который заходят ежедневно тысячи человек и посещаемость постоянно растёт. Мы создали панель лицензирования для защиты PHP скриптов от воровства и SEO панель для мониторинга наших сайтов и выбора верной стратегии их развития. Мы надеемся что то что мы создали пригодится Вам и возможно Вы поможете нам развиваться и совершенствоваться вместе с Вами.

Статистика форума

Темы
378.796
Сообщения
418.333
Пользователи
50.347
Новый пользователь
Yankee

Приложения форума для iOS и Android


У ркн там нет власти ;)
Приватные разговоры
Помощь Пользователи
    Вы не присоединились ни к одной комнате.