За последнюю неделю опубликовано 16 новых материалов.
Инструкция новичку Путеводитель по форуму Прокси для Telegram Показать подсказки , это бомба!

Скачать Ещё до войны (1982) SATRip-AVC от ExKinoRay бесплатно через торрент

  • Поучаствуй (в качестве покупателя) в любых пяти совместных покупках (кроме завершённых и "Моментальных") и получи группу "Новичок" навсегда -> ссылка на раздел
  • Получай до 480 рублей за каждого приглашенного пользователя!
    представляем Вам очередное расширение партнерской программы, подробности описаны тут -> ссылка
  • 90% материалов доступно к скачиванию после простой регистрации!
    Если же ты хочешь скачивать материалы без требования оставлять отзывы то получи группу "Новичок", 10 способов повышения описаны тут -> ссылка
  • К сожалению количество битых ссылок растет и мы уже не можем их оперативно восстанавливать поэтому просим помощи у каждого нашего пользователя.
    С сегодняшнего дня, за каждую восстановленную ссылку мы заплатим Вам.
    Подробнее тут -> ссылка
  • Перенесем твои заслуги с другого ресурса!
    Мы понимаем как сложно прокачивать аккаунты на форумах, вроде раскачал аккаунт, а тут появляется ресурс в 100 раз круче но тоже с системой прокачки и снова качать аккаунт...
    Предлагаем вам перенести Ваши заслуги на другом подобном ресурсе к нам.
    Подробности описаны тут -> ссылка
  • Вы можете получать по 2.5% с каждой покупки и продажи на маркете! Подробности в теме Партнёрская программа
Если Вы не хотите скачивать, Вы всегда можетепосмотретьонлайн, просто нажмите кнопку ниже :

Открыть плеер

Torrent_Bot

Торрент-Бот
Бот форума
4 Окт 2016
122
116
20



Информация о фильме
Название: Ещё до войны
Год выхода: 1982
Жанр: Мелодрама, экранизация
Режиссер: Борис Савченко
В ролях: Дарья Михайлова, Андрей Ярославцев, Людмила Шевель, Ирина Жалыбина, Ольга Анохина, Юрий Гребенщиков, Василий Петренко, Элеонора Шашкова, Александр Гебдовский, Сергей Калантай, Владимир Петрив, Виктор Мирошниченко, Лилия Гурова, Николай Юдин, Ирина Аверьянова, Николай Федорцов, Александр Белина

О фильме:
Тихо и мирно живет деревушка Улым. После службы в армии домой возвращается Анатолий Трифонов. Отец хочет, чтобы он срочно женился. В деревне много невест. Но из города приезжает племянница председателя, хрупкая и не похожая на других девушка Рая. Они полюбили друг друга. Однако жизнь распорядилась по-своему…



Страна: СССР
Студия: Киевская киностудия
Продолжительность: 2 x ~ 01:04:30
Язык: Русский

Формат: MKV
Качество: SATRip-AVC
Видео: MPEG-4 AVC, 768х[email protected] (4:3), 768х[email protected] (4:3), 25.000 fps,~ 2500 Kbps, 0.249 bit/pixel
Аудио: 48 kHz, MP3, 2.0, 128 Kbps | RUS |


ОтчетМедиаИнфо
General
Unique ID : 252437355690295259690191558500044365933 (0xBDE9AA8EBE3CF590B54E7E80DB41E06D)
Complete name : F:ЕЩЁ ДО ВОЙНЫ.1982AVC.ExKinoRayЕЩЁ ДО ВОЙНЫ 1 1982.AVC.ExKinoRay.mkv
Format : Matroska
Format version : Version 2
File size : 1.22 GiB
Duration : 1 h 4 min
Overall bit rate : 2 705 kb/s
Movie name : ЕЩЁ ДО ВОЙНЫ 1 from ExKinoRay
Encoded date : UTC 2019-11-11 12:36:17
Writing application : mkvmerge v5.6.0 ('Kenya Kane') built on May 27 2012 16:44:04
Writing library : libebml v1.2.3 + libmatroska v1.3.0

Video
ID : 1
Format : AVC
Format/Info : Advanced Video Codec
Format profile : [email protected]
Format settings, CABAC : Yes
Format settings, ReFrames : 13 frames
Codec ID : V_MPEG4/ISO/AVC
Duration : 1 h 4 min
Bit rate : 2 576 kb/s
Width : 720 pixels
Height : 574 pixels
Display aspect ratio : 4:3
Frame rate mode : Constant
Frame rate : 25.000 FPS
Color space : YUV
Chroma subsampling : 4:2:0
Bit depth : 8 bits
Scan type : Progressive
Bits/(Pixel*Frame) : 0.249
Stream size : 1.14 GiB (93%)
Title : Enigma
Writing library : x264 core 152 r2851 ba24899
Encoding settings : cabac=1 / ref=13 / deblock=1:-2:-2 / analyse=0x3:0x113 / me=umh / subme=10 / psy=1 / psy_rd=1.00:0.05 / mixed_ref=1 / me_range=32 / chroma_me=1 / trellis=2 / 8x8dct=1 / cqm=0 / deadzone=21,11 / fast_pskip=0 / chroma_qp_offset=-3 / threads=12 / lookahead_threads=2 / sliced_threads=0 / nr=0 / decimate=0 / interlaced=0 / bluray_compat=0 / constrained_intra=0 / bframes=9 / b_pyramid=2 / b_adapt=2 / b_bias=0 / direct=3 / weightb=1 / open_gop=0 / weightp=2 / keyint=250 / keyint_min=25 / scenecut=40 / intra_refresh=0 / rc=2pass / mbtree=0 / bitrate=2576 / ratetol=1.0 / qcomp=0.60 / qpmin=0 / qpmax=51 / qpstep=4 / cplxblur=20.0 / qblur=0.5 / ip_ratio=1.40 / pb_ratio=1.30 / aq=1:1.00
Language : English
Default : Yes
Forced : No
Color range : Limited
Color primaries : BT.709
Transfer characteristics : BT.709
Matrix coefficients : BT.709

Audio
ID : 2
Format : MPEG Audio
Format version : Version 1
Format profile : Layer 3
Mode : Joint stereo
Mode extension : MS Stereo
Codec ID : A_MPEG/L3
Codec ID/Hint : MP3
Duration : 1 h 4 min
Bit rate mode : Constant
Bit rate : 128 kb/s
Channel(s) : 2 channels
Sampling rate : 48.0 kHz
Compression mode : Lossy
Stream size : 59.2 MiB (5%)
Language : Russian
Default : Yes
Forced : No





Релиз от:

Автор релиза:
 

Вложения

  • 13,1 KB Просмотры: 0
    Личеров 0
    Сидеров 0
    Файлов 2
    Объем 2,4 GB

Привет!

Мы группа людей которые решили помочь другим в решении их проблем, а так же пользователям с поиском самых свежих и качественных инфопродуктов. За 4 с небольшим месяца мы создали этот форум на который заходят ежедневно тысячи человек и посещаемость постоянно растёт. Мы создали панель лицензирования для защиты PHP скриптов от воровства и SEO панель для мониторинга наших сайтов и выбора верной стратегии их развития. Мы надеемся что то что мы создали пригодится Вам и возможно Вы поможете нам развиваться и совершенствоваться вместе с Вами.

Статистика форума

Темы
385.067
Сообщения
430.526
Пользователи
63.288
Новый пользователь
Persikkk

Приложения форума для iOS и Android


У ркн там нет власти ;)
Приватные разговоры
Помощь Пользователи
    Вы не присоединились ни к одной комнате.