За последнюю неделю опубликовано 99 новых материалов.
Инструкция новичку Путеводитель по форуму Прокси для Telegram Показать подсказки , это бомба!

Скачать Еще вчера / Omohide poro poro (1991) BDRip-AVC бесплатно через торрент

  • Поучаствуй (в качестве покупателя) в любых пяти совместных покупках (кроме завершённых и "Моментальных") и получи группу "Новичок" навсегда -> ссылка на раздел
  • Получай до 480 рублей за каждого приглашенного пользователя!
    представляем Вам очередное расширение партнерской программы, подробности описаны тут -> ссылка
  • 90% материалов доступно к скачиванию после простой регистрации!
    Если же ты хочешь скачивать материалы без требования оставлять отзывы то получи группу "Новичок", 10 способов повышения описаны тут -> ссылка
  • К сожалению количество битых ссылок растет и мы уже не можем их оперативно восстанавливать поэтому просим помощи у каждого нашего пользователя.
    С сегодняшнего дня, за каждую восстановленную ссылку мы заплатим Вам.
    Подробнее тут -> ссылка
  • Перенесем твои заслуги с другого ресурса!
    Мы понимаем как сложно прокачивать аккаунты на форумах, вроде раскачал аккаунт, а тут появляется ресурс в 100 раз круче но тоже с системой прокачки и снова качать аккаунт...
    Предлагаем вам перенести Ваши заслуги на другом подобном ресурсе к нам.
    Подробности описаны тут -> ссылка
  • Вы можете получать по 2.5% с каждой покупки и продажи на маркете! Подробности в теме Партнёрская программа

Torrent_Bot

Торрент-Бот
Бот форума
4 Окт 2016
79
194
20
Информация о фильме
Название: Еще вчера
Оригинальное название: Omohide poro poro / Only Yesterday
Год выхода: 1991
Жанр: аниме, мультфильм, драма, мелодрама
Режиссер: Исао Такахата
В ролях: Мики Имаи, Тоширо Янагиба, Ёко Хонна, Маюми Иидзука, Масахиро Ито, Чие Китагава, Ёшимаса Кондо, Юки Масуда, Юки Минова, Кацуо Такахаси

О фильме:
Во время отдыха Таеко неожиданно для себя обнаруживает, что вспоминает времена, когда она была маленькой и училась в школе в далеком 1966 году. Действие фильма постоянно скачет назад и вперед между двумя временными периодами с ностальгией и прекрасными горными пейзажами, в то время как Таеко расставляет по полочкам свои воспоминания и пытается принять трудное решение о своем будущем…


42e9092770aed63f1670913c5f9ba4f8.gif

Страна: Япония
Студия: Studio Ghibli
Продолжительность: 01:58:48
Перевод: Профессиональный (многоголосый, закадровый)

Файл
Кодек: h.264
Качество: BDRip-AVC
Видео: 1024x552, 1561 Kbps, 23.976 fps, 0.115 Bits/(Pixel*Frame)
Звук: AC3, 192 Kbps, 2 channels

MI
Format : Matroska
Format version : Version 2
File size : 1.46 GiB
Duration : 1h 58mn
Overall bit rate : 1 754 Kbps
Encoded date : UTC 2013-02-11 12:05:27
Writing application : mkvmerge v5.0.1 ('Es ist Sommer') built on Oct 24 2011 19:45:06
Writing library : libebml v1.2.2 + libmatroska v1.3.0

Video
ID : 1
Format : AVC
Format/Info : Advanced Video Codec
Format profile : [email protected]
Format settings, CABAC : Yes
Format settings, ReFrames : 14 frames
Codec ID : V_MPEG4/ISO/AVC
Duration : 1h 58mn
Bit rate : 1 561 Kbps
Width : 1 024 pixels
Height : 552 pixels
Display aspect ratio : 1.85:1
Frame rate : 23.976 fps
Color space : YUV
Chroma subsampling : 4:2:0
Bit depth : 8 bits
Scan type : Progressive
Bits/(Pixel*Frame) : 0.115
Stream size : 1.27 GiB (87%)
Writing library : x264 core 129 r2230 1cffe9f
Encoding settings : cabac=1 / ref=14 / deblock=1:0:0 / analyse=0x3:0x133 / me=umh / subme=11 / psy=1 / psy_rd=1.00:0.00 / mixed_ref=1 / me_range=32 / chroma_me=1 / trellis=2 / 8x8dct=1 / cqm=0 / deadzone=21,11 / fast_pskip=0 / chroma_qp_offset=-2 / threads=9 / lookahead_threads=1 / sliced_threads=0 / nr=0 / decimate=1 / interlaced=0 / bluray_compat=0 / constrained_intra=0 / bframes=8 / b_pyramid=2 / b_adapt=2 / b_bias=0 / direct=3 / weightb=1 / open_gop=0 / weightp=2 / keyint=250 / keyint_min=23 / scenecut=40 / intra_refresh=0 / rc_lookahead=60 / rc=2pass / mbtree=1 / bitrate=1561 / ratetol=1.0 / qcomp=0.60 / qpmin=0 / qpmax=69 / qpstep=4 / cplxblur=20.0 / qblur=0.5 / ip_ratio=1.40 / aq=1:1.00
Language : English
Default : Yes
Forced : No

Audio
ID : 2
Format : AC-3
Format/Info : Audio Coding 3
Mode extension : CM (complete main)
Format settings, Endianness : Big
Codec ID : A_AC3
Duration : 1h 58mn
Bit rate mode : Constant
Bit rate : 192 Kbps
Channel(s) : 2 channels
Channel positions : Front: L R
Sampling rate : 48.0 KHz
Bit depth : 16 bits
Compression mode : Lossy
Stream size : 163 MiB (11%)
Title : Русский AC3, 2ch 192 kbps (многоголосый, RUSCICO)
Language : Russian
Default : Yes
Forced : No

x264
x264 [info]: frame I:1274 Avg QP:17.59 size:105927
x264 [info]: frame P:33528 Avg QP:20.52 size: 23313
x264 [info]: frame B:136105 Avg QP:22.83 size: 3484

Скриншоты
b772e7e9f1994d1c61c28b1eef226ee4.jpg485ffbf190e1b029059ce6e3fbcb773e.jpg93bd697c421a8e8a011407c313362c6d.jpg1053c71e5a5a498360ba0a040cbef3ff.jpg
 

Вложения

Привет!

Мы группа людей которые решили помочь другим в решении их проблем, а так же пользователям с поиском самых свежих и качественных инфопродуктов. За 4 с небольшим месяца мы создали этот форум на который заходят ежедневно тысячи человек и посещаемость постоянно растёт. Мы создали панель лицензирования для защиты PHP скриптов от воровства и SEO панель для мониторинга наших сайтов и выбора верной стратегии их развития. Мы надеемся что то что мы создали пригодится Вам и возможно Вы поможете нам развиваться и совершенствоваться вместе с Вами.

Статистика форума

Темы
414.370
Сообщения
475.396
Пользователи
96.561
Новый пользователь
starushka

Приложения форума для iOS и Android


У ркн там нет власти ;)
Приватные разговоры
Помощь Пользователи
    Вы не присоединились ни к одной комнате.