За последнюю неделю опубликовано 47 новых материалов.
Инструкция новичку Путеводитель по форуму Прокси для Telegram Показать подсказки , это бомба!

Скачать Ensiferum - Thalassic [24Bit Hi-Res] (2020) FLAC бесплатно через торрент

  • Поучаствуй (в качестве покупателя) в любых пяти совместных покупках (кроме завершённых и "Моментальных") и получи группу "Новичок" навсегда -> ссылка на раздел
  • Получай до 480 рублей за каждого приглашенного пользователя!
    представляем Вам очередное расширение партнерской программы, подробности описаны тут -> ссылка
  • 90% материалов доступно к скачиванию после простой регистрации!
    Если же ты хочешь скачивать материалы без требования оставлять отзывы то получи группу "Новичок", 10 способов повышения описаны тут -> ссылка
  • К сожалению количество битых ссылок растет и мы уже не можем их оперативно восстанавливать поэтому просим помощи у каждого нашего пользователя.
    С сегодняшнего дня, за каждую восстановленную ссылку мы заплатим Вам.
    Подробнее тут -> ссылка
  • Перенесем твои заслуги с другого ресурса!
    Мы понимаем как сложно прокачивать аккаунты на форумах, вроде раскачал аккаунт, а тут появляется ресурс в 100 раз круче но тоже с системой прокачки и снова качать аккаунт...
    Предлагаем вам перенести Ваши заслуги на другом подобном ресурсе к нам.
    Подробности описаны тут -> ссылка
  • Вы можете получать по 2.5% с каждой покупки и продажи на маркете! Подробности в теме Партнёрская программа

Torrent_Bot

Торрент-Бот
Бот форума
4 Окт 2016
93
160
20



Исполнитель: Ensiferum | Название: Thalassic
Страна: Finland | Жанр: Epic-Folk-Metal
Год: 2020 | Продолжительность: 00:43:46
Формат/Кодек: FLAC | Битрейт аудио: Lossless
Количество каналов: 2.0 | Разрядность: 24/48
Тип рипа: tracks



tracklist
01. Seafarer's Dream (3:02)
02. Rum, Women, Victory (4:16)
03. Andromeda (4:04)
04. The Defence of the Sampo (4:51)
05. Run from the Crushing Tide (4:22)
06. For Sirens (4:40)
07. One with the Sea (6:11)
08. Midsummer Magic (3:42)
09. Cold Northland (Väinämöinen Part III) (8:41)
DR
foobar2000 1.5 / Замер динамического диапазона (DR) 1.1.1
Дата отчёта: 2020-07-26 20:28:27

--------------------------------------------------------------------------------
Анализ: Ensiferum / Thalassic
--------------------------------------------------------------------------------

DR Пики RMS Продолжительность трека
--------------------------------------------------------------------------------
DR7 -0.30 дБ -10.99 дБ 3:02 01-Seafarer's Dream
DR5 -0.21 дБ -6.97 дБ 4:16 02-Rum, Women, Victory
DR6 -0.30 дБ -7.07 дБ 4:04 03-Andromeda
DR5 -0.30 дБ -7.08 дБ 4:51 04-The Defence of the Sampo
DR5 -0.30 дБ -6.71 дБ 4:22 05-Run from the Crushing Tide
DR6 -0.30 дБ -8.14 дБ 4:40 06-For Sirens
DR6 -0.30 дБ -7.83 дБ 6:11 07-One with the Sea
DR6 -0.30 дБ -7.89 дБ 3:42 08-Midsummer Magic
DR6 -0.30 дБ -7.87 дБ 8:41 09-Cold Northland (Väinämöinen Part III)
--------------------------------------------------------------------------------

Количество треков: 9
Реальные значения DR: DR6

Частота: 48000 Гц
Каналов: 2
Разрядность: 24
Битрейт: 1831 кбит/с
Кодек: FLAC
================================================================================
 

Вложения

  • 13 KB Просмотры: 0
    Личеров 0
    Сидеров 0
    Файлов 11
    Объем 588,7 MB

Привет!

Мы группа людей которые решили помочь другим в решении их проблем, а так же пользователям с поиском самых свежих и качественных инфопродуктов. За 4 с небольшим месяца мы создали этот форум на который заходят ежедневно тысячи человек и посещаемость постоянно растёт. Мы создали панель лицензирования для защиты PHP скриптов от воровства и SEO панель для мониторинга наших сайтов и выбора верной стратегии их развития. Мы надеемся что то что мы создали пригодится Вам и возможно Вы поможете нам развиваться и совершенствоваться вместе с Вами.

Статистика форума

Темы
406.640
Сообщения
465.115
Пользователи
84.582
Новый пользователь
mladshiy

Приложения форума для iOS и Android


У ркн там нет власти ;)
Приватные разговоры
Помощь Пользователи
    Вы не присоединились ни к одной комнате.