За последнюю неделю опубликовано 57 новых материалов.
Инструкция новичку Путеводитель по форуму Прокси для Telegram Показать подсказки , это бомба!

Скачать Это всё она / She's All That (1999) DVDRip-AVC | P2 | Fullscreen бесплатно через торрент

  • Поучаствуй (в качестве покупателя) в любых пяти совместных покупках (кроме завершённых и "Моментальных") и получи группу "Новичок" навсегда -> ссылка на раздел
  • Получай до 480 рублей за каждого приглашенного пользователя!
    представляем Вам очередное расширение партнерской программы, подробности описаны тут -> ссылка
  • 90% материалов доступно к скачиванию после простой регистрации!
    Если же ты хочешь скачивать материалы без требования оставлять отзывы то получи группу "Новичок", 10 способов повышения описаны тут -> ссылка
  • К сожалению количество битых ссылок растет и мы уже не можем их оперативно восстанавливать поэтому просим помощи у каждого нашего пользователя.
    С сегодняшнего дня, за каждую восстановленную ссылку мы заплатим Вам.
    Подробнее тут -> ссылка
  • Перенесем твои заслуги с другого ресурса!
    Мы понимаем как сложно прокачивать аккаунты на форумах, вроде раскачал аккаунт, а тут появляется ресурс в 100 раз круче но тоже с системой прокачки и снова качать аккаунт...
    Предлагаем вам перенести Ваши заслуги на другом подобном ресурсе к нам.
    Подробности описаны тут -> ссылка
  • Вы можете получать по 2.5% с каждой покупки и продажи на маркете! Подробности в теме Партнёрская программа
Если Вы не хотите скачивать, Вы всегда можетепосмотретьонлайн, просто нажмите кнопку ниже :

Открыть плеер

Torrent_Bot

Торрент-Бот
Бот форума
4 Окт 2016
92
163
20



Название: Это всё она
Оригинальное название: She's All That
Год выхода: 1999
Жанр: мелодрама, комедия
Режиссер: Роберт Айскоув
В ролях: Фредди Принц мл., Рэйчел Ли Кук, Мэттью Лиллард, Пол Уокер, Джоди Лин О'Кифи, Кевин Поллак, Анна Пэкуин, Киран Калкин, Элден Хенсон, Ашер, Кимберли Лил Ким, Гэбриэл Юнион

О фильме:
ак Сайлер - самый популярный из старшеклассников, предмет обожания учителей и воздыхания девчонок. Он староста класса, капитан футбольной команды и один из первых по успеваемости. Бесспорно, Зак станет королем выпускного бала, но... этого везунчика предательски подводит королева! Зак и Тэйлор считались лучшей парой в школе, но Тэйлор, особа заносчивая и с огромным самомнением, бросает Зака за шесть недель до бала. Неудачи на любовном фронте могли сломить кого угодно, только не Зака Сайлера. Он берется «сделать» себе новую королеву! Зак заключает с друзьями пари, что за шесть недель превратит в писаную красавицу самую неприглядную девчонку в классе. Выбор падает на Ленни, очкастую «ботаничку» с хорошей фигурой, спрятанной под мешковатой одеждой. Эта девушка - очень запущенный экземпляр! Пигмалион берется за работу и... конечно, влюбляется в свою Галатею.



Страна: США
Продолжительность: 01:35:36
Перевод: Профессиональный (двухголосый закадровый)

Формат: MKV
Качество: DVDRip-AVC
Видео: AVC/H.264, 718x480(4:3)@718x540, 23.976 fps, ~1798 Kbps
Аудио: AC3, 6 ch, 384 kbps - Русский (DVO R5)
Субтитры: нет

MediaInfo
General
Unique ID : 318946716643479685986626751288545573755 (0xEFF2E739BD02793C5AF74AFB4C8EFB7B)
Complete name : D:Это всё она (1999) DVDRip-AVC Fullscreen.mkv
Format : Matroska
Format version : Version 4
File size : 1.46 GiB
Duration : 1 h 35 min
Overall bit rate : 2 183 kb/s
Encoded date : UTC 2018-07-01 11:06:21
Writing application : mkvmerge v24.0.0 ('Beyond The Pale') 64-bit
Writing library : libebml v1.3.6 + libmatroska v1.4.9

Video
ID : 1
Format : AVC
Format/Info : Advanced Video Codec
Format profile : [email protected]
Format settings : CABAC / 8 Ref Frames
Format settings, CABAC : Yes
Format settings, Reference : 8 frames
Codec ID : V_MPEG4/ISO/AVC
Duration : 1 h 35 min
Bit rate : 1 798 kb/s
Width : 718 pixels
Height : 480 pixels
Display aspect ratio : 4:3
Frame rate mode : Constant
Frame rate : 23.976 (24000/1001) FPS
Color space : YUV
Chroma subsampling : 4:2:0
Bit depth : 8 bits
Scan type : Progressive
Bits/(Pixel*Frame) : 0.218
Stream size : 1.20 GiB (82%)
Writing library : x264 core 155 r2901 7d0ff22
Encoding settings : cabac=1 / ref=8 / deblock=1:-1:-1 / analyse=0x3:0x133 / me=umh / subme=9 / psy=1 / psy_rd=1.00:0.15 / mixed_ref=1 / me_range=32 / chroma_me=1 / trellis=2 / 8x8dct=1 / cqm=0 / deadzone=21,11 / fast_pskip=1 / chroma_qp_offset=-3 / threads=3 / lookahead_threads=1 / sliced_threads=0 / nr=0 / decimate=1 / interlaced=0 / bluray_compat=0 / constrained_intra=0 / bframes=10 / b_pyramid=2 / b_adapt=2 / b_bias=0 / direct=3 / weightb=1 / open_gop=0 / weightp=2 / keyint=240 / keyint_min=23 / scenecut=40 / intra_refresh=0 / rc=2pass / mbtree=0 / bitrate=1798 / ratetol=1.0 / qcomp=0.60 / qpmin=0 / qpmax=69 / qpstep=4 / cplxblur=20.0 / qblur=0.5 / ip_ratio=1.40 / pb_ratio=1.30 / aq=1:1.00
Default : Yes
Forced : No

Audio
ID : 2
Format : AC-3
Format/Info : Audio Coding 3
Commercial name : Dolby Digital
Codec ID : A_AC3
Duration : 1 h 35 min
Bit rate mode : Constant
Bit rate : 384 kb/s
Channel(s) : 6 channels
Channel layout : L R C LFE Ls Rs
Sampling rate : 48.0 kHz
Frame rate : 31.250 FPS (1536 SPF)
Bit depth : 16 bits
Compression mode : Lossy
Stream size : 263 MiB (18%)
Title : DVO R5
Language : Russian
Service kind : Complete Main
Default : Yes
Forced : No
Сравнения:


Скриншоты
 

Вложения

  • 15,5 KB Просмотры: 0
    Личеров 0
    Сидеров 0
    Файлов 1
    Объем 1,5 GB

Привет!

Мы группа людей которые решили помочь другим в решении их проблем, а так же пользователям с поиском самых свежих и качественных инфопродуктов. За 4 с небольшим месяца мы создали этот форум на который заходят ежедневно тысячи человек и посещаемость постоянно растёт. Мы создали панель лицензирования для защиты PHP скриптов от воровства и SEO панель для мониторинга наших сайтов и выбора верной стратегии их развития. Мы надеемся что то что мы создали пригодится Вам и возможно Вы поможете нам развиваться и совершенствоваться вместе с Вами.

Статистика форума

Темы
406.698
Сообщения
465.162
Пользователи
84.789
Новый пользователь
Setis

Приложения форума для iOS и Android


У ркн там нет власти ;)
Приватные разговоры
Помощь Пользователи
    Вы не присоединились ни к одной комнате.