За последнюю неделю опубликовано 44 новых материалов.
Инструкция новичку Путеводитель по форуму Прокси для Telegram Показать подсказки , это бомба!

Скачать Эта веселая планета (1973) DVDRip от New-Team бесплатно через торрент

  • Поучаствуй (в качестве покупателя) в любых пяти совместных покупках (кроме завершённых и "Моментальных") и получи группу "Новичок" навсегда -> ссылка на раздел
  • Получай до 480 рублей за каждого приглашенного пользователя!
    представляем Вам очередное расширение партнерской программы, подробности описаны тут -> ссылка
  • 90% материалов доступно к скачиванию после простой регистрации!
    Если же ты хочешь скачивать материалы без требования оставлять отзывы то получи группу "Новичок", 10 способов повышения описаны тут -> ссылка
  • К сожалению количество битых ссылок растет и мы уже не можем их оперативно восстанавливать поэтому просим помощи у каждого нашего пользователя.
    С сегодняшнего дня, за каждую восстановленную ссылку мы заплатим Вам.
    Подробнее тут -> ссылка
  • Перенесем твои заслуги с другого ресурса!
    Мы понимаем как сложно прокачивать аккаунты на форумах, вроде раскачал аккаунт, а тут появляется ресурс в 100 раз круче но тоже с системой прокачки и снова качать аккаунт...
    Предлагаем вам перенести Ваши заслуги на другом подобном ресурсе к нам.
    Подробности описаны тут -> ссылка
  • Вы можете получать по 2.5% с каждой покупки и продажи на маркете! Подробности в теме Партнёрская программа
Если Вы не хотите скачивать, Вы всегда можетепосмотретьонлайн, просто нажмите кнопку ниже :

Открыть плеер

Torrent_Bot

Торрент-Бот
Бот форума
4 Окт 2016
90
168
20
Страна: СССР
Производство: Мосфильм
Жанр: мюзикл, фантастика, комедия
Год выпуска: 1973
Продолжительность: 01:31:04

Перевод: не требуется
Оригинальная аудиодорожка: русский
Cубтитры: нет

Режиссер: Юрий Цветков, Юрий Сааков

В ролях:
Виктор Сергачев, Екатерина Васильева, Леонид Куравлев, Александр Вокач, Лариса Барабанова, Савелий Крамаров, Наталья Крачковская, Владимир Носик, Вячеслав Гостинский, Игорь Кашинцев, Михаил Езепов, Валентин Голубенко, Светлана Данильченко, Вадим Завьялов, Геннадий Юхтин, Александр Лебедев, Елена Максимова, Виктор Маркин, Георгиос Совчис, Андрей Карташов, Людмила Семеняка, Владимир Тихонов, Валерий и Геннадий Сазоновы, вартисты музыкальных театров, эстрады и цирка...
Исполнители песен: Татьяна Сашко ("Белый танец"), Янина Бразайтене ("Сердце любить должно"), Валерий Ободзинский ("Вечная весна", "Листопад"), Леонид Куравлев и Виктор Сергачев ("На самой совершенной из планет..."), Лев Лещенко ("Песня о вечном движении"), ансамбль "Добры молодцы" ("Я еду к морю", "Галина"), ансамбль "Веселые ребята" ("Это - Москва", "Скорый поезд", "У той горы"), ансамбль "Песняры" ("Наши любимые")

Описание:
Прилетевшие на Землю инопланетяне попадают на встречу Нового года в обычный Дворец культуры. Столкнувшись со множеством загадок, они постепенно приходят к пониманию того, что земная жизнь без шутки и смеха, без искусства и любви невозможна…





Исходник: DVD5 R5
Тип релиза: DVDRip
Контейнер: AVI

Видео: 640x464 (4:3), 25 fps, XviD ~ 1005 kbps avg, 0.135 bit/pixel
Аудио: 48 kHz, MP3 2.0, 128 kbps
MediaInfo
Общее
Полное имя : Jeta.veselaya.planeta.1973.DVDRip-745_[Youtracker]_by_AVP Studio.avi
Формат : AVI
Формат/Информация : Audio Video Interleave
Размер файла : 745 Мбайт
Продолжительность : 1 ч. 31 м.
Общий поток : 1143 Кбит/сек
Программа кодирования : VirtualDubModRus 1.5.10.2 (build 2542/release)
Библиотека кодирования : VirtualDubMod build 2542/release

Видео
Идентификатор : 0
Формат : MPEG-4 Visual
Профиль формата : Advanced [email protected]
Параметр BVOP формата : 1
Параметр QPel формата : Нет
Параметр GMC формата : Без точки перехода
Параметр матрицы формата : Выборочная
Идентификатор кодека : XVID
Идентификатор кодека/Подсказка : XviD
Продолжительность : 1 ч. 31 м.
Битрейт : 1005 Кбит/сек
Ширина : 640 пикселей
Высота : 464 пикселя
Соотношение сторон : 4:3
Частота кадров : 25,000 кадров/сек
Цветовое пространство : YUV
Субдискретизация насыщенности : 4:2:0
Битовая глубина : 8 бит
Тип развёртки : Прогрессивная
Метод сжатия : С потерями
Бит/(Пиксели*Кадры) : 0.135
Размер потока : 655 Мбайт (88%)
Библиотека кодирования : XviD 65

Аудио
Идентификатор : 1
Формат : MPEG Audio
Версия формата : Version 1
Профиль формата : Layer 3
Идентификатор кодека : 55
Идентификатор кодека/Подсказка : MP3
Продолжительность : 1 ч. 31 м.
Вид битрейта : Постоянный
Битрейт : 128 Кбит/сек
Каналы : 2 канала
Частота : 48,0 КГц
Метод сжатия : С потерями
Размер потока : 83,4 Мбайт (11%)
Выравнивание : Соединение по промежуткам
Продолжительность промежутка : 40 мс. (1,00 видеокадр)
Время предзагрузки промежутка : 504 мс.
Библиотека кодирования : L3.99r
Настройки программы : -m s -V 4 -q 2 -lowpass 17 -b 128
Скриншоты
 

Вложения

  • 15,8 KB Просмотры: 1
    Личеров 0
    Сидеров 0
    Файлов 1
    Объем 744,7 MB

Привет!

Мы группа людей которые решили помочь другим в решении их проблем, а так же пользователям с поиском самых свежих и качественных инфопродуктов. За 4 с небольшим месяца мы создали этот форум на который заходят ежедневно тысячи человек и посещаемость постоянно растёт. Мы создали панель лицензирования для защиты PHP скриптов от воровства и SEO панель для мониторинга наших сайтов и выбора верной стратегии их развития. Мы надеемся что то что мы создали пригодится Вам и возможно Вы поможете нам развиваться и совершенствоваться вместе с Вами.

Статистика форума

Темы
410.923
Сообщения
469.328
Пользователи
88.232
Новый пользователь
Antoshkaa

Приложения форума для iOS и Android


У ркн там нет власти ;)
Приватные разговоры
Помощь Пользователи
    Вы не присоединились ни к одной комнате.