За последнюю неделю опубликовано 63 новых материалов.
Инструкция новичку Путеводитель по форуму Прокси для Telegram Показать подсказки , это бомба!

Скачать Эспен. Дилогия / Askeladden. Dilogy (2017-2019) BDRip-AVC от Generalfilm | iTunes бесплатно через торрент

  • Поучаствуй (в качестве покупателя) в любых пяти совместных покупках (кроме завершённых и "Моментальных") и получи группу "Новичок" навсегда -> ссылка на раздел
  • Получай до 480 рублей за каждого приглашенного пользователя!
    представляем Вам очередное расширение партнерской программы, подробности описаны тут -> ссылка
  • 90% материалов доступно к скачиванию после простой регистрации!
    Если же ты хочешь скачивать материалы без требования оставлять отзывы то получи группу "Новичок", 10 способов повышения описаны тут -> ссылка
  • К сожалению количество битых ссылок растет и мы уже не можем их оперативно восстанавливать поэтому просим помощи у каждого нашего пользователя.
    С сегодняшнего дня, за каждую восстановленную ссылку мы заплатим Вам.
    Подробнее тут -> ссылка
  • Перенесем твои заслуги с другого ресурса!
    Мы понимаем как сложно прокачивать аккаунты на форумах, вроде раскачал аккаунт, а тут появляется ресурс в 100 раз круче но тоже с системой прокачки и снова качать аккаунт...
    Предлагаем вам перенести Ваши заслуги на другом подобном ресурсе к нам.
    Подробности описаны тут -> ссылка
  • Вы можете получать по 2.5% с каждой покупки и продажи на маркете! Подробности в теме Партнёрская программа
Если Вы не хотите скачивать, Вы всегда можетепосмотретьонлайн, просто нажмите кнопку ниже :

Открыть плеер

Torrent_Bot

Торрент-Бот
Бот форума
4 Окт 2016
92
160
20

Эспен в королевстве троллей / Askeladden - I Dovregubbens hall
Информация о фильме
Название: Эспен в королевстве троллей
Оригинальное название: Askeladden - I Dovregubbens hall
Год выпуска: 2017
Страна: Норвегия
Жанр: приключения, семейный

Перевод: Дублированный [iTunes]
Продолжительность: 01:44:20

Режиссер: Миккель Бренне Сандемусе
В ролях: Вебьёрн Энгер, Элли Харбоа, Мэдс Сьёгард Петтерсен, Элиас Хольмен Сёренсен, Эллан Хайд, Гискен Арманд, Гард Б. Эйдсвольд, Синневе Макоди Лунд, Торбьорн Харр, Ида Урсин-Хольм


Описание:
Эспен живет с отцом и братьями на ферме. Однажды из-за своей неуёмной фантазии и неуклюжести он сжигает дом. Также выясняется, что девушка, которую он повстречал в лесу за день до этого - сбежавшая принцесса, и за помощь в ее поисках полагается вознаграждение. Эспен с братьями ввязываются в опасное приключение и идут спасать принцессу из рук Горного Короля - тролля, который по легенде пробуждается, если принцесса не выходит замуж до своего 18-летия. Однако братья - не единственные, кто ищет принцессу, её также разыскивает принц, который хочет жениться на ней из корыстных побуждений.

Рейтинг:


Качество: BDRip-AVC
Формат: MKV
Видео: AVC, 1024x428 (2.40:1), 1622 kbps, 24 fps, 0,154 bpp
Аудио: русский / AC3 / 5.1 / 48 kHz / 384 kbps /
Навигация по главам: есть


Релиз от:


ОтчетМедиаИнфо
General
Unique ID : 234264028688276976053347607098582672494 (0xB03D9C5BB544FF538FDC28D2FE20A46E)
Complete name : G:GFAskeladden - DilogyAskeladden.I.Dovregubbens.Hall.2017.BDRip.AVC.Rip.by.HardwareMining.R.G.Generalfilm.mkv
Format : Matroska
Format version : Version 4 / Version 2
File size : 1.46 GiB
Duration : 1 h 44 min
Overall bit rate : 2 007 kb/s
Movie name : Rip.by.HardwareMining.R.G.Generalfilm
Encoded date : UTC 2020-08-23 16:09:25
Writing application : mkvmerge v6.8.0 ('Theme for Great Cities') 64bit built on Mar 2 2014 21:34:26
Writing library : libebml v1.3.0 + libmatroska v1.4.1
Cover : Yes
Attachments : cover.jpg

Video
ID : 1
Format : AVC
Format/Info : Advanced Video Codec
Format profile : [email protected]
Format settings, CABAC : Yes
Format settings, ReFrames : 10 frames
Codec ID : V_MPEG4/ISO/AVC
Duration : 1 h 44 min
Bit rate : 1 622 kb/s
Width : 1 024 pixels
Height : 428 pixels
Display aspect ratio : 2.40:1
Frame rate mode : Constant
Frame rate : 24.000 FPS
Color space : YUV
Chroma subsampling : 4:2:0
Bit depth : 8 bits
Scan type : Progressive
Bits/(Pixel*Frame) : 0.154
Stream size : 1.15 GiB (79%)
Writing library : x264 core 148 r2638 7599210
Encoding settings : cabac=1 / ref=10 / deblock=1:-2:-1 / analyse=0x3:0x113 / me=umh / subme=11 / psy=1 / psy_rd=0.00:0.15 / mixed_ref=1 / me_range=32 / chroma_me=1 / trellis=2 / 8x8dct=1 / cqm=0 / deadzone=21,11 / fast_pskip=0 / chroma_qp_offset=-3 / threads=6 / lookahead_threads=1 / sliced_threads=0 / nr=0 / decimate=0 / interlaced=0 / bluray_compat=0 / constrained_intra=0 / bframes=10 / b_pyramid=2 / b_adapt=2 / b_bias=0 / direct=1 / weightb=1 / open_gop=0 / weightp=2 / keyint=240 / keyint_min=23 / scenecut=40 / intra_refresh=0 / rc_lookahead=40 / rc=2pass / mbtree=0 / bitrate=1622 / ratetol=1.0 / qcomp=0.65 / qpmin=0 / qpmax=69 / qpstep=4 / cplxblur=20.0 / qblur=0.5 / vbv_maxrate=50000 / vbv_bufsize=65500 / nal_hrd=none / filler=0 / ip_ratio=1.40 / pb_ratio=1.30 / aq=1:2.00
Language : English
Default : Yes
Forced : No

Audio
ID : 2
Format : AC-3
Format/Info : Audio Coding 3
Mode extension : CM (complete main)
Format settings, Endianness : Big
Codec ID : A_AC3
Duration : 1 h 44 min
Bit rate mode : Constant
Bit rate : 384 kb/s
Channel(s) : 6 channels
Channel positions : Front: L C R, Side: L R, LFE
Sampling rate : 48.0 kHz
Frame rate : 31.250 FPS (1536 spf)
Compression mode : Lossy
Stream size : 287 MiB (19%)
Title : iTunes
Language : Russian
Default : Yes
Forced : No

Menu
00:00:00.000 : en:00:00:00.000
00:09:59.542 : en:00:09:59.542
00:19:59.583 : en:00:19:59.583
00:29:59.583 : en:00:29:59.583
00:39:59.583 : en:00:39:59.583
00:49:59.542 : en:00:49:59.542
00:59:59.625 : en:00:59:59.625
01:09:59.875 : en:01:09:59.875
01:19:59.667 : en:01:19:59.667
01:29:59.583 : en:01:29:59.583
01:39:59.583 : en:01:39:59.583
Скриншоты





Эспен в поисках Золотого замка / Askeladden - I Soria Moria slott
Информация о фильме
Название: Эспен в поисках Золотого замка
Оригинальное название: Askeladden - I Soria Moria slott
Год выпуска: 2019
Страна: Норвегия
Жанр: фэнтези, приключения, семейный

Перевод: Дублированный [iTunes]
Продолжительность: 01:41:20

Режиссер: Миккель Бренне Сандемусе
В ролях: Вебьёрн Энгер, Элли Харбоа, Мадс Сьёгард Петтерсен, Элиас Хольмен Сёренсен, Гэбриел Эндрюс, Гискен Арманд, Петронелла Баркер, Фроде Биркеланд, Гард Б. Эйдсвольд, Александра Гйерпен


Описание:
Король и королева отравлены. Единственный шанс на спасение – живая вода, спрятанная на краю света в стенах таинственного Золотого замка. Эспен с принцессой Кристин отправляются в путешествие, полное опасностей и приключений.

Рейтинг:


Качество: BDRip-AVC
Формат: MKV
Видео: AVC, 1024x426 (2.40:1), 2500 kbps, 24 fps, 0,239 bpp
Аудио: русский / AC3 / 5.1 / 48 kHz / 384 kbps /
Навигация по главам: есть


Релиз от:


ОтчетМедиаИнфо
General
Unique ID : 173465900030138671904186919222643607139 (0x8280512EC3985E51AC0A7BD383DD4663)
Complete name : G:GFAskeladden - DilogyAskeladden.I.Soria.Moria.Slott.2019.BDRip.AVC.Rip.by.HardwareMining.R.G.Generalfilm.mkv
Format : Matroska
Format version : Version 4 / Version 2
File size : 2.04 GiB
Duration : 1 h 41 min
Overall bit rate : 2 884 kb/s
Movie name : Rip.by.HardwareMining.R.G.Generalfilm
Encoded date : UTC 2020-08-23 11:13:04
Writing application : mkvmerge v6.8.0 ('Theme for Great Cities') 64bit built on Mar 2 2014 21:34:26
Writing library : libebml v1.3.0 + libmatroska v1.4.1
Cover : Yes
Attachments : cover.jpg

Video
ID : 1
Format : AVC
Format/Info : Advanced Video Codec
Format profile : [email protected]
Format settings, CABAC : Yes
Format settings, ReFrames : 10 frames
Codec ID : V_MPEG4/ISO/AVC
Duration : 1 h 41 min
Bit rate : 2 500 kb/s
Width : 1 024 pixels
Height : 426 pixels
Display aspect ratio : 2.40:1
Frame rate mode : Constant
Frame rate : 24.000 FPS
Color space : YUV
Chroma subsampling : 4:2:0
Bit depth : 8 bits
Scan type : Progressive
Bits/(Pixel*Frame) : 0.239
Stream size : 1.73 GiB (85%)
Writing library : x264 core 148 r2638 7599210
Encoding settings : cabac=1 / ref=10 / deblock=1:-2:-1 / analyse=0x3:0x113 / me=umh / subme=11 / psy=1 / psy_rd=0.00:0.15 / mixed_ref=1 / me_range=32 / chroma_me=1 / trellis=2 / 8x8dct=1 / cqm=0 / deadzone=21,11 / fast_pskip=0 / chroma_qp_offset=-3 / threads=6 / lookahead_threads=1 / sliced_threads=0 / nr=0 / decimate=0 / interlaced=0 / bluray_compat=0 / constrained_intra=0 / bframes=10 / b_pyramid=2 / b_adapt=2 / b_bias=0 / direct=1 / weightb=1 / open_gop=0 / weightp=2 / keyint=240 / keyint_min=23 / scenecut=40 / intra_refresh=0 / rc_lookahead=40 / rc=2pass / mbtree=0 / bitrate=2500 / ratetol=1.0 / qcomp=0.65 / qpmin=0 / qpmax=69 / qpstep=4 / cplxblur=20.0 / qblur=0.5 / vbv_maxrate=50000 / vbv_bufsize=65500 / nal_hrd=none / filler=0 / ip_ratio=1.40 / pb_ratio=1.30 / aq=1:2.00
Language : English
Default : Yes
Forced : No

Audio
ID : 2
Format : AC-3
Format/Info : Audio Coding 3
Mode extension : CM (complete main)
Format settings, Endianness : Big
Codec ID : A_AC3
Duration : 1 h 41 min
Bit rate mode : Constant
Bit rate : 384 kb/s
Channel(s) : 6 channels
Channel positions : Front: L C R, Side: L R, LFE
Sampling rate : 48.0 kHz
Frame rate : 31.250 FPS (1536 spf)
Compression mode : Lossy
Stream size : 278 MiB (13%)
Title : iTunes
Language : Russian
Default : Yes
Forced : No

Menu
00:00:00.000 : no:Глава 01
00:04:42.292 : no:Глава 02
00:09:01.000 : no:Глава 03
00:16:08.167 : no:Глава 04
00:22:48.750 : no:Глава 05
00:26:49.417 : no:Глава 06
00:30:09.875 : no:Глава 07
00:36:04.167 : no:Глава 08
00:43:34.833 : no:Глава 09
00:49:44.042 : no:Глава 10
00:54:22.833 : no:Глава 11
01:03:11.792 : no:Глава 12
01:11:36.542 : no:Глава 13
01:18:31.500 : no:Глава 14
01:27:36.250 : no:Глава 15
01:35:06.458 : no:Глава 16
Скриншоты





 

Вложения

  • 18,7 KB Просмотры: 0
    Личеров 0
    Сидеров 0
    Файлов 2
    Объем 3,5 GB

Привет!

Мы группа людей которые решили помочь другим в решении их проблем, а так же пользователям с поиском самых свежих и качественных инфопродуктов. За 4 с небольшим месяца мы создали этот форум на который заходят ежедневно тысячи человек и посещаемость постоянно растёт. Мы создали панель лицензирования для защиты PHP скриптов от воровства и SEO панель для мониторинга наших сайтов и выбора верной стратегии их развития. Мы надеемся что то что мы создали пригодится Вам и возможно Вы поможете нам развиваться и совершенствоваться вместе с Вами.

Статистика форума

Темы
406.656
Сообщения
465.106
Пользователи
84.673
Новый пользователь
cltdyj

Приложения форума для iOS и Android


У ркн там нет власти ;)
Приватные разговоры
Помощь Пользователи
    Вы не присоединились ни к одной комнате.