За последнюю неделю опубликовано 28 новых материалов.
Инструкция новичку Путеводитель по форуму Прокси для Telegram Показать подсказки , это бомба!

Скачать Эскобар / Loving Pablo (2017) BDRemux 1080p | iTunes бесплатно через торрент

  • Поучаствуй (в качестве покупателя) в любых пяти совместных покупках (кроме завершённых и "Моментальных") и получи группу "Новичок" навсегда -> ссылка на раздел
  • Получай до 480 рублей за каждого приглашенного пользователя!
    представляем Вам очередное расширение партнерской программы, подробности описаны тут -> ссылка
  • 90% материалов доступно к скачиванию после простой регистрации!
    Если же ты хочешь скачивать материалы без требования оставлять отзывы то получи группу "Новичок", 10 способов повышения описаны тут -> ссылка
  • К сожалению количество битых ссылок растет и мы уже не можем их оперативно восстанавливать поэтому просим помощи у каждого нашего пользователя.
    С сегодняшнего дня, за каждую восстановленную ссылку мы заплатим Вам.
    Подробнее тут -> ссылка
  • Перенесем твои заслуги с другого ресурса!
    Мы понимаем как сложно прокачивать аккаунты на форумах, вроде раскачал аккаунт, а тут появляется ресурс в 100 раз круче но тоже с системой прокачки и снова качать аккаунт...
    Предлагаем вам перенести Ваши заслуги на другом подобном ресурсе к нам.
    Подробности описаны тут -> ссылка
  • Вы можете получать по 2.5% с каждой покупки и продажи на маркете! Подробности в теме Партнёрская программа
Если Вы не хотите скачивать, Вы всегда можетепосмотретьонлайн, просто нажмите кнопку ниже :

Открыть плеер

Torrent_Bot

Торрент-Бот
Бот форума
4 Окт 2016
93
156
20
Эскобар / Loving Pablo

Страна: Испания Болгария США
Производство: B2Y Productions, Escobar Films
Год выпуска: 2017
Жанр:биография, драма, криминал
Продолжительность: 01:46:00

Режиссер: Фернандо Леон Де Араноа
Авторы сценария: Фернандо Леон Де Араноа, Вирджиния Вальехо

В ролях: Хавьер Бардем, Пенелопа Крус, Питер Сарсгаард, Жульет Рестрепо, Оскар Хаэнада, Фреди Йэт, Рикардо Ниньо, Педро Кальво

Описание: История восхождения Пабло Эскобара — его стремительного пути к миллиардам, могуществу и непростительным преступлениям. Во всесильного наркобарона влюбляется журналистка, чьи мемуары положены в основу фильма...



Перевод: Профессиональный (полное дублирование) | iTunes
Субтитры: нет


Качество: BDRemux 1080p
Формат: МКV
Видео кодек: AVC
Аудио кодек: АС3| DTS
Видео: 1920x1080 (16:9), 24.000 fps, MPEG-4 AVC ~22.9 Мbps avg
Аудио №1: 48.0 kHz, AC3 Dolby Digital, 3/2 (L,C,R,l,r) + LFE ch, ~384 kbps | RUS / DUB / iTunes
Аудио №2: 48.0 kHz, Digital Theater Systems Master Audio, 3/2 (L,C,R,l,r) + LFE ch, ~2869 kbps / 24-bit | ENG

Дата премьеры (мир): 6 сентября 2017
Дата премьеры (РФ): 14 июня 2018, «Каскад фильм»

Релиз от:

BDRemux Info
Unique ID : 189917496175176039339979667260186426160 (0x8EE0C77F336F68212B94EFB99D49FB30)
Complete name : Loving.Pablo.2018.bdremuX.108Op.werecut.PROD.mkv
Format : Matroska
Format version : Version 4 / Version 2
File size : 19.4 GiB
Duration : 1 h 46 min
Overall bit rate mode : Variable
Overall bit rate : 26.1 Mb/s
Movie name : Loving Pablo 2018 OT werecut PROD.
Encoded date : UTC 2018-08-25 02:17:52
Writing application : mkvmerge v24.0.0 ('Beyond The Pale') 64-bit
Writing library : libebml v1.3.6 + libmatroska v1.4.9

Video
ID : 1
Format : AVC
Format/Info : Advanced Video Codec
Format profile : [email protected]
Format settings : CABAC / 2 Ref Frames
Format settings, CABAC : Yes
Format settings, ReFrames : 2 frames
Format settings, GOP : M=1, N=5
Codec ID : V_MPEG4/ISO/AVC
Duration : 1 h 46 min
Bit rate mode : Variable
Bit rate : 22.9 Mb/s
Maximum bit rate : 30.2 Mb/s
Width : 1 920 pixels
Height : 1 080 pixels
Display aspect ratio : 16:9
Frame rate mode : Constant
Frame rate : 24.000 FPS
Color space : YUV
Chroma subsampling : 4:2:0
Bit depth : 8 bits
Scan type : Progressive
Bits/(Pixel*Frame) : 0.460
Stream size : 16.9 GiB (88%)
Language : English
Default : Yes
Forced : No

Audio #1
ID : 2
Format : AC-3
Format/Info : Audio Coding 3
Commercial name : Dolby Digital
Codec ID : A_AC3
Duration : 1 h 45 min
Bit rate mode : Constant
Bit rate : 384 kb/s
Channel(s) : 6 channels
Channel positions : Front: L C R, Side: L R, LFE
Sampling rate : 48.0 kHz
Frame rate : 31.250 FPS (1536 SPF)
Bit depth : 16 bits
Compression mode : Lossy
Stream size : 291 MiB (1%)
Language : Russian
Service kind : Complete Main
Default : Yes
Forced : Yes

Audio #2
ID : 3
Format : DTS
Format/Info : Digital Theater Systems
Format profile : MA / Core
Codec ID : A_DTS
Duration : 1 h 46 min
Bit rate mode : Variable / Constant
Bit rate : 2 869 kb/s / 1 509 kb/s
Channel(s) : 6 channels
Channel positions : Front: L C R, Side: L R, LFE
Sampling rate : 48.0 kHz
Frame rate : 93.750 FPS (512 SPF)
Bit depth : 24 bits
Compression mode : Lossless / Lossy
Stream size : 2.12 GiB (11%)
Language : English
Default : No
Forced : No

Menu
00:00:00.000 : en:00:00:00.000
00:04:04.833 : en:00:04:04.833
00:09:48.833 : en:00:09:48.833
00:15:14.292 : en:00:15:14.292
00:20:05.167 : en:00:20:05.167
00:26:28.500 : en:00:26:28.500
00:31:45.917 : en:00:31:45.917
00:36:37.625 : en:00:36:37.625
00:41:12.167 : en:00:41:12.167
00:45:45.125 : en:00:45:45.125
00:51:45.417 : en:00:51:45.417
00:57:11.375 : en:00:57:11.375
01:02:18.958 : en:01:02:18.958
01:07:56.625 : en:01:07:56.625
01:13:30.000 : en:01:13:30.000
01:17:47.542 : en:01:17:47.542
01:22:54.292 : en:01:22:54.292
01:28:09.208 : en:01:28:09.208
01:33:39.500 : en:01:33:39.500
01:39:44.250 : en:01:39:44.250
Скриншоты
 

Вложения

  • 97,7 KB Просмотры: 1
    Личеров 0
    Сидеров 0
    Файлов 1
    Объем 19,4 GB

Привет!

Мы группа людей которые решили помочь другим в решении их проблем, а так же пользователям с поиском самых свежих и качественных инфопродуктов. За 4 с небольшим месяца мы создали этот форум на который заходят ежедневно тысячи человек и посещаемость постоянно растёт. Мы создали панель лицензирования для защиты PHP скриптов от воровства и SEO панель для мониторинга наших сайтов и выбора верной стратегии их развития. Мы надеемся что то что мы создали пригодится Вам и возможно Вы поможете нам развиваться и совершенствоваться вместе с Вами.

Статистика форума

Темы
406.553
Сообщения
464.731
Пользователи
83.473
Новый пользователь
Ira10

Приложения форума для iOS и Android


У ркн там нет власти ;)
Приватные разговоры
Помощь Пользователи
    Вы не присоединились ни к одной комнате.