За последнюю неделю опубликовано 177 новых материалов.
Инструкция новичку Путеводитель по форуму Прокси для Telegram Показать подсказки , это бомба!

Скачать Энтропия (2012) WEBRip от Files-x бесплатно через торрент

  • Поучаствуй (в качестве покупателя) в любых пяти совместных покупках (кроме завершённых и "Моментальных") и получи группу "Новичок" навсегда -> ссылка на раздел
  • Получай до 480 рублей за каждого приглашенного пользователя!
    представляем Вам очередное расширение партнерской программы, подробности описаны тут -> ссылка
  • 90% материалов доступно к скачиванию после простой регистрации!
    Если же ты хочешь скачивать материалы без требования оставлять отзывы то получи группу "Новичок", 10 способов повышения описаны тут -> ссылка
  • К сожалению количество битых ссылок растет и мы уже не можем их оперативно восстанавливать поэтому просим помощи у каждого нашего пользователя.
    С сегодняшнего дня, за каждую восстановленную ссылку мы заплатим Вам.
    Подробнее тут -> ссылка
  • Перенесем твои заслуги с другого ресурса!
    Мы понимаем как сложно прокачивать аккаунты на форумах, вроде раскачал аккаунт, а тут появляется ресурс в 100 раз круче но тоже с системой прокачки и снова качать аккаунт...
    Предлагаем вам перенести Ваши заслуги на другом подобном ресурсе к нам.
    Подробности описаны тут -> ссылка
  • Вы можете получать по 2.5% с каждой покупки и продажи на маркете! Подробности в теме Партнёрская программа
Если Вы не хотите скачивать, Вы всегда можетепосмотретьонлайн, просто нажмите кнопку ниже :

Открыть плеер

Torrent_Bot

Торрент-Бот
Бот форума
4 Окт 2016
124
98
20
Информация о фильме
Название: Энтропия
Год выпуска: 2012
Жанр:Комедия
Режиссер: Мария Саакян
В ролях: Валерия-Гай Германика, Ксения Собчак, Диана Дэлль, Данила Поляков, Евгений Цыганов

О фильме: Конец света уже наступил, ты этого просто не заметил. Валерия Гай Германика, Ксения Собчак, Диана Дэлль, Данила Поляков и простой парень по кличке Овощ - одни в недостроенном пустом доме. Ждут грядущий апокалипсис и снимают об этом кино. Играют ли они? А кого они играют в жизни? Что получилось - комедия абсурда, мистический триллер, социальная драма, пародия, «Дом-2», политический манифест, культовое кино или, говоря словами одного из героев, «жопа», - решать зрителю. Как и вопрос о том, в каком жанре встречать свой личный апокалипсис.

98a60cbbb53f44400add20a3cf20144e.gif

Выпущено: Россия
Студия: Vita Aktiva
Продолжительность: 01:16:32
Перевод: Не требуется

Файл
Качество: WEBRip
Видео: XviD, 1994 Кбит/с, 720x400
Аудио: AC3, 2 ch, 192 Кбит/с

Скриншоты
a4095d082778efc68452d64c4e5521b6.jpg454bda4716e79c5a12328164b8d910a8.jpg47a44a7ba05e8c45806e3f6b60e162a2.jpg144b12deafc827c3eb6bbc9715197cb9.jpg

MediaInfo
Общее
Полное имя : F:VideoЭнтропия.2012.WEBRip.Files-x.avi
Формат : AVI
Формат/Информация : Audio Video Interleave
Размер файла : 1,17 Гбайт
Продолжительность : 1 ч. 16 м.
Общий поток : 2196 Кбит/сек
Программа кодирования : VirtualDubMod 1.5.10.3 | www.virtualdub-fr.org || (build 2550/release)
Библиотека кодирования : VirtualDubMod build 2550/release

Видео
Идентификатор : 0
Формат : MPEG-4 Visual
Профиль формата : Advanced Simple@L5
Параметр BVOP формата : 1
Параметр QPel формата : Нет
Параметр GMC формата : Без точки перехода
Параметр матрицы формата : Выборочная
Идентификатор кодека : XVID
Идентификатор кодека/Подсказка : XviD
Продолжительность : 1 ч. 16 м.
Битрейт : 1995 Кбит/сек
Ширина : 720 пикселей
Высота : 400 пикселей
Соотношение сторон : 16:9
Частота кадров : 23,976 кадра/сек
Цветовое пространство : YUV
Субдискретизация насыщенности : 4:2:0
Битовая глубина : 8 бит
Тип развёртки : Прогрессивная
Метод сжатия : С потерями
Бит/(Пиксели*Кадры) : 0.289
Размер потока : 1,07 Гбайт (91%)
Библиотека кодирования : XviD 73

Аудио
Идентификатор : 1
Формат : AC-3
Формат/Информация : Audio Coding 3
Расширение режима : CM (complete main)
Параметр Endianness формата : Big
Идентификатор кодека : 2000
Продолжительность : 1 ч. 16 м.
Вид битрейта : Постоянный
Битрейт : 192 Кбит/сек
Каналы : 2 канала
Расположение каналов : Front: L R
Частота : 48,0 КГц
Битовая глубина : 16 бит
Метод сжатия : С потерями
Размер потока : 105 Мбайт (9%)
Выравнивание : Разделение по промежуткам
Продолжительность промежутка : 42 мс. (1,00 видеокадр)
Время предзагрузки промежутка : 500 мс.



Релиз от:
 

Вложения

  • 12,7 KB Просмотры: 0
    Личеров 0
    Сидеров 0
    Файлов 1
    Объем 1,2 GB
Ваш e-mail не будет опубликован. Он потребуется для подтверждения Вашего поста.
Оформление текста Нажмите «Ввод», чтобы отправить ответ.

Привет!

Мы группа людей которые решили помочь другим в решении их проблем, а так же пользователям с поиском самых свежих и качественных инфопродуктов. За 4 с небольшим месяца мы создали этот форум на который заходят ежедневно тысячи человек и посещаемость постоянно растёт. Мы создали панель лицензирования для защиты PHP скриптов от воровства и SEO панель для мониторинга наших сайтов и выбора верной стратегии их развития. Мы надеемся что то что мы создали пригодится Вам и возможно Вы поможете нам развиваться и совершенствоваться вместе с Вами.

Статистика форума

Темы
380.750
Сообщения
420.473
Пользователи
50.963
Новый пользователь
Xopek

Приложения форума для iOS и Android


У ркн там нет власти ;)
Приватные разговоры
Помощь Пользователи
    Вы не присоединились ни к одной комнате.