За последнюю неделю опубликовано 57 новых материалов.
Инструкция новичку Путеводитель по форуму Прокси для Telegram Показать подсказки , это бомба!

Скачать Эмма. / Emma. (2020) BDRemux 1080p от селезень | D, P | Лицензия бесплатно через торрент

  • Поучаствуй (в качестве покупателя) в любых пяти совместных покупках (кроме завершённых и "Моментальных") и получи группу "Новичок" навсегда -> ссылка на раздел
  • Получай до 480 рублей за каждого приглашенного пользователя!
    представляем Вам очередное расширение партнерской программы, подробности описаны тут -> ссылка
  • 90% материалов доступно к скачиванию после простой регистрации!
    Если же ты хочешь скачивать материалы без требования оставлять отзывы то получи группу "Новичок", 10 способов повышения описаны тут -> ссылка
  • К сожалению количество битых ссылок растет и мы уже не можем их оперативно восстанавливать поэтому просим помощи у каждого нашего пользователя.
    С сегодняшнего дня, за каждую восстановленную ссылку мы заплатим Вам.
    Подробнее тут -> ссылка
  • Перенесем твои заслуги с другого ресурса!
    Мы понимаем как сложно прокачивать аккаунты на форумах, вроде раскачал аккаунт, а тут появляется ресурс в 100 раз круче но тоже с системой прокачки и снова качать аккаунт...
    Предлагаем вам перенести Ваши заслуги на другом подобном ресурсе к нам.
    Подробности описаны тут -> ссылка
  • Вы можете получать по 2.5% с каждой покупки и продажи на маркете! Подробности в теме Партнёрская программа
Если Вы не хотите скачивать, Вы всегда можетепосмотретьонлайн, просто нажмите кнопку ниже :

Открыть плеер

Torrent_Bot

Торрент-Бот
Бот форума
4 Окт 2016
92
163
20


Информация о фильме
Название: Эмма.
Оригинальное название: Emma.
Год выхода: 2020
Жанр: Драма, комедия
Режиссер: Отем де Уайлд
В ролях: Аня Тейлор-Джой, Джош О`Коннор, Джонни Флинн, Джемма Уилан, Миа Гот, Энгус Имри, Эйдан Уайт, Эдвард Дэвис, Билл Найи, Каллум Тернер, Миранда Харт, Руперт Грейвз, Эмбер Андерсон



О фильме: Красивая, молодая и богатая Эмма Вудхаус, будучи уверенной, что никогда не выйдет замуж, выступает в роли свахи для своих подруг и знакомых. Но жизнь преподносит ей сюрприз за сюрпризом. Однажды она отговаривает свою подругу Гарриет выходить замуж за фермера и сватает её с викарием Элтоном. Но тот влюбляется в саму Эмму...

Страна: Великобритания
Студия: Working Title Films, Blueprint Pictures, Perfect World Pictures
Продолжительность: 02:04:45
Перевод(ы):
#1: Дублированный | Лицензия
#2: Профессиональный многоголосый | HDRezka Studio

Качество: BDRemux 1080p
Видео: MPEG-4 AVC, 1920x1080, 29.7 Mbit/s, 23.976 fps
Аудио #01: 48 kHz, DTS, 5.1, 768 Kbps | Лицензия | RUS |
Аудио #02: 48 kHz, AC3, 5.1, 448 Kbps | Лицензия | RUS |
Аудио #03: 48 kHz, AC3, 5.1, 448 Kbps | HDRezka Studio | RUS |
Аудио #04: 48 kHz, DTS-HD MA, 5.1, 3399 Kbps | Оригинал | ENG |
Субтитры: Русские (Forced, full), английские



MI
General
Unique ID : 340323914493251846052577415364933135 (0x418B43B338F8E7041388800660F60F)
Complete name : E:Video111Emma.2020.Lic.D.MVO.BDREMUX.1080p.seleZen.mkv
Format : Matroska
Format version : Version 4
File size : 30.3 GiB
Duration : 2 h 4 min
Overall bit rate mode : Variable
Overall bit rate : 34.7 Mb/s
Movie name : Emma 2020 from селезень
Encoded date : UTC 2020-06-15 06:34:29
Writing application : mkvmerge v40.0.0 ('Old Town Road + Pony') 64-bit
Writing library : libebml v1.3.9 + libmatroska v1.5.2

Video
ID : 1
Format : AVC
Format/Info : Advanced Video Codec
Format profile : [email protected]
Format settings : CABAC / 2 Ref Frames
Format settings, CABAC : Yes
Format settings, Reference : 2 frames
Codec ID : V_MPEG4/ISO/AVC
Duration : 2 h 4 min
Bit rate mode : Variable
Bit rate : 29.7 Mb/s
Width : 1 920 pixels
Height : 1 080 pixels
Display aspect ratio : 16:9
Frame rate mode : Constant
Frame rate : 23.976 (24000/1001) FPS
Color space : YUV
Chroma subsampling : 4:2:0
Bit depth : 8 bits
Scan type : Progressive
Bits/(Pixel*Frame) : 0.597
Stream size : 25.8 GiB (85%)
Language : English
Default : Yes
Forced : No

Audio #1
ID : 2
Format : DTS
Format/Info : Digital Theater Systems
Codec ID : A_DTS
Duration : 2 h 4 min
Bit rate mode : Constant
Bit rate : 768 kb/s
Channel(s) : 6 channels
Channel layout : C L R Ls Rs LFE
Sampling rate : 48.0 kHz
Frame rate : 93.750 FPS (512 SPF)
Bit depth : 24 bits
Compression mode : Lossy
Stream size : 685 MiB (2%)
Title : Dub [License]
Language : Russian
Default : Yes
Forced : Yes

Audio #2
ID : 3
Format : AC-3
Format/Info : Audio Coding 3
Commercial name : Dolby Digital
Codec ID : A_AC3
Duration : 2 h 4 min
Bit rate mode : Constant
Bit rate : 448 kb/s
Channel(s) : 6 channels
Channel layout : L R C LFE Ls Rs
Sampling rate : 48.0 kHz
Frame rate : 31.250 FPS (1536 SPF)
Compression mode : Lossy
Stream size : 400 MiB (1%)
Title : Dub [License]
Language : Russian
Service kind : Complete Main
Default : No
Forced : No

Audio #3
ID : 4
Format : AC-3
Format/Info : Audio Coding 3
Commercial name : Dolby Digital
Codec ID : A_AC3
Duration : 2 h 4 min
Bit rate mode : Constant
Bit rate : 448 kb/s
Channel(s) : 6 channels
Channel layout : L R C LFE Ls Rs
Sampling rate : 48.0 kHz
Frame rate : 31.250 FPS (1536 SPF)
Compression mode : Lossy
Stream size : 400 MiB (1%)
Title : MVO [HDRezka Studio]
Language : Russian
Service kind : Complete Main
Default : No
Forced : No

Audio #4
ID : 5
Format : DTS XLL
Format/Info : Digital Theater Systems
Commercial name : DTS-HD Master Audio
Codec ID : A_DTS
Duration : 2 h 4 min
Bit rate mode : Variable
Bit rate : 3 399 kb/s
Channel(s) : 6 channels
Channel layout : C L R Ls Rs LFE
Sampling rate : 48.0 kHz
Frame rate : 93.750 FPS (512 SPF)
Bit depth : 24 bits
Compression mode : Lossless
Stream size : 2.96 GiB (10%)
Title : Original
Language : English
Default : No
Forced : No

Text #1
ID : 6
Format : UTF-8
Codec ID : S_TEXT/UTF8
Codec ID/Info : UTF-8 Plain Text
Duration : 1 min 38 s
Bit rate : 15 b/s
Count of elements : 3
Stream size : 188 Bytes (0%)
Title : Forced
Language : Russian
Default : Yes
Forced : Yes

Text #2
ID : 7
Format : UTF-8
Codec ID : S_TEXT/UTF8
Codec ID/Info : UTF-8 Plain Text
Duration : 1 h 56 min
Bit rate : 94 b/s
Count of elements : 1559
Stream size : 80.3 KiB (0%)
Title : Full
Language : Russian
Default : No
Forced : No

Text #3
ID : 8
Format : UTF-8
Codec ID : S_TEXT/UTF8
Codec ID/Info : UTF-8 Plain Text
Duration : 2 h 3 min
Bit rate : 67 b/s
Count of elements : 2067
Stream size : 61.3 KiB (0%)
Title : SDH
Language : English
Default : No
Forced : No

Menu
00:00:00.000 : en:Глава 01
00:07:56.851 : en:Глава 02
00:11:50.335 : en:Глава 03
00:16:45.588 : en:Глава 04
00:22:16.627 : en:Глава 05
00:25:55.012 : en:Глава 06
00:32:10.637 : en:Глава 07
00:36:23.681 : en:Глава 08
00:44:38.301 : en:Глава 09
00:47:55.748 : en:Глава 10
00:56:40.814 : en:Глава 11
01:00:40.345 : en:Глава 12
01:05:40.353 : en:Глава 13
01:09:52.313 : en:Глава 14
01:18:50.559 : en:Глава 15
01:25:29.082 : en:Глава 16
01:35:30.683 : en:Глава 17
01:44:04.989 : en:Глава 18
01:55:40.600 : en:Глава 19
01:57:47.060 : en:Глава 20

Релиз от:

 

Вложения

  • 38,8 KB Просмотры: 0
    Личеров 0
    Сидеров 0
    Файлов 1
    Объем 30,3 GB

Привет!

Мы группа людей которые решили помочь другим в решении их проблем, а так же пользователям с поиском самых свежих и качественных инфопродуктов. За 4 с небольшим месяца мы создали этот форум на который заходят ежедневно тысячи человек и посещаемость постоянно растёт. Мы создали панель лицензирования для защиты PHP скриптов от воровства и SEO панель для мониторинга наших сайтов и выбора верной стратегии их развития. Мы надеемся что то что мы создали пригодится Вам и возможно Вы поможете нам развиваться и совершенствоваться вместе с Вами.

Статистика форума

Темы
406.698
Сообщения
465.162
Пользователи
84.790
Новый пользователь
wesennijh

Приложения форума для iOS и Android


У ркн там нет власти ;)
Приватные разговоры
Помощь Пользователи
    Вы не присоединились ни к одной комнате.