За последнюю неделю опубликовано 59 новых материалов.
Инструкция новичку Путеводитель по форуму Прокси для Telegram Показать подсказки , это бомба!

DCMA Скачать Элизабет Харвест / Elizabeth Harvest (2018) WEB-DL 1080p от Ash61 | L бесплатно через торрент

  • Поучаствуй (в качестве покупателя) в любых пяти совместных покупках (кроме завершённых и "Моментальных") и получи группу "Новичок" навсегда -> ссылка на раздел
  • Получай до 480 рублей за каждого приглашенного пользователя!
    представляем Вам очередное расширение партнерской программы, подробности описаны тут -> ссылка
  • 90% материалов доступно к скачиванию после простой регистрации!
    Если же ты хочешь скачивать материалы без требования оставлять отзывы то получи группу "Новичок", 10 способов повышения описаны тут -> ссылка
  • К сожалению количество битых ссылок растет и мы уже не можем их оперативно восстанавливать поэтому просим помощи у каждого нашего пользователя.
    С сегодняшнего дня, за каждую восстановленную ссылку мы заплатим Вам.
    Подробнее тут -> ссылка
  • Перенесем твои заслуги с другого ресурса!
    Мы понимаем как сложно прокачивать аккаунты на форумах, вроде раскачал аккаунт, а тут появляется ресурс в 100 раз круче но тоже с системой прокачки и снова качать аккаунт...
    Предлагаем вам перенести Ваши заслуги на другом подобном ресурсе к нам.
    Подробности описаны тут -> ссылка
  • Вы можете получать по 2.5% с каждой покупки и продажи на маркете! Подробности в теме Партнёрская программа
Если Вы не хотите скачивать, Вы всегда можетепосмотретьонлайн, просто нажмите кнопку ниже :

Открыть плеер

Torrent_Bot

Торрент-Бот
Бот форума
4 Окт 2016
82
186
20
Элизабет Харвест
Elizabeth Harvest


Год выпуска: 2018
Страна: США (IFC Films, Motion Picture Capital, Automatik, Voltage Pictures)
Жанр: триллер, фантастика
Продолжительность: 01:48:48

Перевод: Любительский (многоголосый закадровый) - Синема УС

Режиссер: Себастьян Гутьеррес / Sebastian Gutierrez



В ролях:

Эбби Ли (Elizabeth), Киран Хайндс (Henry), Карла Гуджино (Claire), Мэттью Бирд (Oliver), Дилан Бейкер (Logan)



Описание: Элизабет всегда мечтала очаровать достойного человека, и чтобы он увёз её подальше ото всех уродств этого мира. И вот мечта сбывается — девушка выходит замуж за блестящего учёного Генри, на много лет её старше. Тот привозит жену в свой особняк, и говорит, что все в этом доме — для неё, кроме одной комнаты, в которую нельзя заходить ни в коем случае. Прислуга относится к новой хозяйке с почтением, но та чувствует, что что-то не так. Однажды, когда супруг отлучается по делам, Элизабет решает выяснить, что же это за загадочная запретная комната.



Доп. инфо: Русская дорога получена вставкой синхронизированных русских фраз из дороги Кошары в центр оригинала. По мере возможности окультурена.



Премьера (мир): 10 марта 2018




Качество: WEB-DL
Контейнер: MKV

Видео: AVC / 1920х800p / 23,976 fps / 4443 Kbps

Аудио:
#1 - Русский / AC3 / 48 KHz / 5.1 ch / 640 Kbps (MVO - Синема УС) (адаптация - Ash61)
#2 - Английский / E-AC3 / 48 KHz / 5.1 ch / 640 Kbps (Original - Amazon)

Субтитры(SRT):
Вшитые (softsub):
#1 - Русские Форсированные [на пропущенные фразы] [Ash61] (включены по умолчанию)
#2 - Русские Полные [FOCS]
#3 - English SDH

Внешние (UTF-8):
#1 - Русские Форсированные [на пропущенные фразы] [Ash61] (включены по умолчанию)

MediaInfo
General
Unique ID : 204748578865104351976147984685126143823 (0x9A0924544286E9EFBF0A09B5B7C44F4F)
Complete name : D:ElizabethHarvest(2018)WEB-DL.1080p.FGT(Rus-MVO[Ash61])ElizabethHarvest(2018)WEB-DL.1080p.FGT(Rus-MVO[Ash61]).mkv
Format : Matroska
Format version : Version 2
File size : 4.44 GiB
Duration : 1h 48mn
Overall bit rate : 5 839 Kbps
Movie name : Elizabeth.Harvest.2018.1080p.WEB-DL.DD5.1.H264-FGT
Encoded date : UTC 2018-09-02 13:02:36
Writing application : mkvmerge v5.8.0 ('No Sleep / Pillow') built on Sep 2 2012 15:37:04
Writing library : libebml v1.2.3 + libmatroska v1.3.0
Cover : Yes
Attachments : small_cover.jpg / small_cover_land.jpg / cover.jpg / cover_land.jpg

Video
ID : 1
Format : AVC
Format/Info : Advanced Video Codec
Format profile : [email protected]
Format settings, CABAC : Yes
Format settings, ReFrames : 5 frames
Codec ID : V_MPEG4/ISO/AVC
Duration : 1h 48mn
Bit rate : 4 443 Kbps
Width : 1 920 pixels
Height : 800 pixels
Display aspect ratio : 2.40:1
Frame rate mode : Constant
Frame rate : 23.976 (24000/1001) fps
Color space : YUV
Chroma subsampling : 4:2:0
Bit depth : 8 bits
Scan type : Progressive
Bits/(Pixel*Frame) : 0.121
Stream size : 3.38 GiB (76%)
Title : Elizabeth.Harvest.2018.1080p.WEB-DL.DD5.1.H264-FGT
Language : English
Default : Yes
Forced : No
Color range : Limited
Color primaries : BT.709
Transfer characteristics : BT.709
Matrix coefficients : BT.709

Audio #1
ID : 2
Format : AC-3
Format/Info : Audio Coding 3
Mode extension : CM (complete main)
Format settings, Endianness : Big
Codec ID : A_AC3
Duration : 1h 48mn
Bit rate mode : Constant
Bit rate : 640 Kbps
Channel(s) : 6 channels
Channel positions : Front: L C R, Side: L R, LFE
Sampling rate : 48.0 KHz
Frame rate : 31.250 fps (1536 spf)
Compression mode : Lossy
Delay relative to video : -42ms
Stream size : 498 MiB (11%)
Title : MVO - Синема УС (адаптация - Ash61)
Language : Russian
Default : Yes
Forced : No

Audio #2
ID : 3
Format : E-AC-3
Format/Info : Audio Coding 3
Format settings, Endianness : Big
Codec ID : A_EAC3
Duration : 1h 48mn
Bit rate mode : Constant
Bit rate : 640 Kbps
Channel(s) : 6 channels
Channel positions : Front: L C R, Side: L R, LFE
Sampling rate : 48.0 KHz
Frame rate : 187.500 fps (256 spf)
Compression mode : Lossy
Delay relative to video : -42ms
Stream size : 498 MiB (11%)
Title : Original (Amzn)
Language : English
Default : No
Forced : No

Text #1
ID : 4
Format : UTF-8
Codec ID : S_TEXT/UTF8
Codec ID/Info : UTF-8 Plain Text
Title : Форсированные (для Синема УС) [от Ash61]
Language : Russian
Default : Yes
Forced : No

Text #2
ID : 5
Format : UTF-8
Codec ID : S_TEXT/UTF8
Codec ID/Info : UTF-8 Plain Text
Title : Полные (FOCS / Нотабеноид)
Language : Russian
Default : No
Forced : No

Text #3
ID : 6
Format : UTF-8
Codec ID : S_TEXT/UTF8
Codec ID/Info : UTF-8 Plain Text
Title : SDH (Amzn)
Language : English
Default : No
Forced : No

Menu
00:00:00.000 : en:1
00:12:14.067 : en:2
00:23:21.025 : en:3
00:34:24.438 : en:4
00:44:32.170 : en:5
00:54:55.084 : en:6
01:03:55.791 : en:7
01:16:04.644 : en:8
01:27:47.930 : en:9
01:44:34.269 : en:10
Скриншоты
Центральный канал: Карта вставок / Исходник / Результирующая
 

Вложения

  • 23,3 KB Просмотры: 1
    Личеров 0
    Сидеров 0
    Файлов 2
    Объем 4,4 GB

Привет!

Мы группа людей которые решили помочь другим в решении их проблем, а так же пользователям с поиском самых свежих и качественных инфопродуктов. За 4 с небольшим месяца мы создали этот форум на который заходят ежедневно тысячи человек и посещаемость постоянно растёт. Мы создали панель лицензирования для защиты PHP скриптов от воровства и SEO панель для мониторинга наших сайтов и выбора верной стратегии их развития. Мы надеемся что то что мы создали пригодится Вам и возможно Вы поможете нам развиваться и совершенствоваться вместе с Вами.

Статистика форума

Темы
412.188
Сообщения
471.243
Пользователи
91.704
Новый пользователь
Эльза60ке

Приложения форума для iOS и Android


У ркн там нет власти ;)
Приватные разговоры
Помощь Пользователи
    Вы не присоединились ни к одной комнате.