За последнюю неделю опубликовано 96 новых материалов.
Инструкция новичку Путеводитель по форуму Прокси для Telegram Показать подсказки , это бомба!

Скачать Элитный отряд / Elite Squad / Tropa de Elite (2007) BDRemux 1080p | P, P2, A бесплатно через торрент

  • Поучаствуй (в качестве покупателя) в любых пяти совместных покупках (кроме завершённых и "Моментальных") и получи группу "Новичок" навсегда -> ссылка на раздел
  • Получай до 480 рублей за каждого приглашенного пользователя!
    представляем Вам очередное расширение партнерской программы, подробности описаны тут -> ссылка
  • 90% материалов доступно к скачиванию после простой регистрации!
    Если же ты хочешь скачивать материалы без требования оставлять отзывы то получи группу "Новичок", 10 способов повышения описаны тут -> ссылка
  • К сожалению количество битых ссылок растет и мы уже не можем их оперативно восстанавливать поэтому просим помощи у каждого нашего пользователя.
    С сегодняшнего дня, за каждую восстановленную ссылку мы заплатим Вам.
    Подробнее тут -> ссылка
  • Перенесем твои заслуги с другого ресурса!
    Мы понимаем как сложно прокачивать аккаунты на форумах, вроде раскачал аккаунт, а тут появляется ресурс в 100 раз круче но тоже с системой прокачки и снова качать аккаунт...
    Предлагаем вам перенести Ваши заслуги на другом подобном ресурсе к нам.
    Подробности описаны тут -> ссылка
  • Вы можете получать по 2.5% с каждой покупки и продажи на маркете! Подробности в теме Партнёрская программа
Если Вы не хотите скачивать, Вы всегда можетепосмотретьонлайн, просто нажмите кнопку ниже :

Открыть плеер

Torrent_Bot

Торрент-Бот
Бот форума
4 Окт 2016
102
153
20

Информация о фильме
Название: Элитный отряд
Оригинальное название: Tropa de Elite / Elite Squad
Год выхода: 2007
Жанр: Боевик, триллер, драма, криминал
Режиссер: Жозе Падилья
В ролях: Вагнер Моура, Андре Рамиро, Кайу Жункейра, Мильем Кортас, Фернанда Мачадо, Мария Рибейро, Паоло Вилела, Фернанда Де Фрейтас, Андре Фелипе, Фабио Лаго

О фильме:
В 1997 году, перед визитом Папы Римского в Рио де-Жанейро, капитан Насцименто из БОПО (Батальона особых полицейских операций) получает задание устранить опасность, исходящую от наркоторговцев, действующих в опасных трущобах поблизости от резиденции Папы. Капитан Насцименто ищет человека, способного заменить его, так как жена капитана беременна, и он собирается оставить БОПО и стать наставником новобранцев. Тем временем, два друга-идеалиста Нето и Матиас начинают службу в военной полиции, рассчитывая стать честными полицейскими и бороться с криминалом. Однако они сталкиваются в военной полиции с коррупцией, недостатком профессионализма и бюрократическим идиотизмом. После серьёзного инцидента в Моро да Бабилония они решают вступить в ряды БОПО. Пути капитана Насцименто, Нето и Матиаса тесно переплетаются на протяжении нескольких месяцев, вначале в период жёстких тренировок, затем в операции против наркоторговцев. Насцименто верит, что Нето может заменить его, но импульсивная натура Нето затрудняет принятие решения. Позднее кандидатура интеллигентного Матиаса кажется корректным выбором, но Матиасу нужно доказать, что у него есть сердце...



Страна: Бразилия, Аргентина, США, Нидерланды
Студия: Costa Films, Estudios Mega, Feijao Filmes, Posto 9
Продолжительность: 01:54:44
Перевод: Профессиональный многоголосый, профессиональный двухголосый, авторский

Файл
Качество: BDRemux 1080p
Видео: VC-1, 18.9 Mбит/с, 1920x1080
Звук №1: Русский | AC3, 6 ch, 384 Кбит/с | Профессиональный многоголосый (R5)
Звук №2: Русский | AC3, 6 ch, 448 Кбит/с | Профессиональный двухголосый (НТВ+)
Звук №3: Русский | AC3, 6 ch, 448 Кбит/с | Авторский перевод (Ю. Сербин)
Звук №4: Португальский | DTS, 6 ch, 1536 Кбит/с | Оригинал
Субтитры: Русские, Английские

Награды
2008 — премия APCA trophy (Сан-Паулу): лучший режиссёр (Жозе Падилья), лучший монтаж (Даниэл Резенде)
2008 — два приза Фестиваля латиноамериканского кино в Лиме: премия зрителей и второй приз «Эльсине» (оба — Жозе Падилья)
2008 — 8 Больших призов Бразильского кино (Cinema Brazil Grand Prize): лучший актёр(Вагнер Моура), лучший режиссёр (Жозе Падилья), лучший оператор (Лула Карвалью), лучший монтаж (Даниэл Резенде), лучший грим (Мартин Масиас), лучший актёр второго плана (Мильен Кортас), лучший звук, лучшие спецэффекты
2008 — Премия Контиго (выбор зрителей): лучший фильм, лучший актёр(Вагнер Моура), лучший актёр второго плана (Андре Рамиру)
2008 — Премия Контиго (выбор жюри): лучший фильм, лучший режиссёр (Жозе Падилья), лучший сценарий (Жозе Падилья, Родригу Пиментел, Браулиу Мантовани, Андре Батишта, Луиз Эдуарду Соареш), лучший актёр второго плана (Андре Рамиру)
2008 — приз «Золотой медведь» Берлинского кинофестиваля (Жозе Падилья)
Скриншоты
Инфо-файл
Формат : Matroska
Версия формата : Version 2
Размер файла : 17,7 Гбайт
Продолжительность : 1 ч. 54 м.
Общий поток : 22,1 Мбит/сек
Название фильма : Elite.Squad.2007.1080p.BluRay.REMUX.by.zzZGVvv
Дата кодирования : UTC 2018-09-01 12:59:25
Программа кодирования : mkvmerge v5.8.0 ('No Sleep / Pillow') built on Sep 2 2012 15:37:04
Библиотека кодирования : libebml v1.2.3 + libmatroska v1.3.0
Attachements : cover.jpg

Видео
Идентификатор : 1
Формат : VC-1
Профиль формата : Advanced@L3
Идентификатор кодека : V_MS/VFW/FOURCC / WVC1
Идентификатор кодека/Подсказка : Microsoft
Продолжительность : 1 ч. 54 м.
Битрейт : 18,9 Мбит/сек
Ширина : 1920 пикселей
Высота : 1080 пикселей
Соотношение сторон : 16:9
Режим частоты кадров : Постоянный
Частота кадров : 23,976 кадра/сек
Цветовое пространство : YUV
Субдискретизация насыщенности : 4:2:0
Битовая глубина : 8 бит
Тип развёртки : Прогрессивная
Метод сжатия : С потерями
Бит/(Пиксели*Кадры) : 0.379
Размер потока : 15,1 Гбайт (85%)
Заголовок : Elite.Squad.2007.1080p.BluRay.REMUX
Язык : English
Default : Нет
Forced : Нет

Аудио #1
Идентификатор : 2
Формат : AC-3
Формат/Информация : Audio Coding 3
Расширение режима : CM (complete main)
Параметр Endianness формата : Big
Идентификатор кодека : A_AC3
Продолжительность : 1 ч. 54 м.
Вид битрейта : Постоянный
Битрейт : 384 Кбит/сек
Каналы : 6 каналов
Расположение каналов : Front: L C R, Side: L R, LFE
Частота : 48,0 КГц
Метод сжатия : С потерями
Размер потока : 315 Мбайт (2%)
Заголовок : MVO [R5]
Язык : Russian
Default : Да
Forced : Нет

Аудио #2
Идентификатор : 3
Формат : AC-3
Формат/Информация : Audio Coding 3
Расширение режима : CM (complete main)
Параметр Endianness формата : Big
Идентификатор кодека : A_AC3
Продолжительность : 1 ч. 54 м.
Вид битрейта : Постоянный
Битрейт : 448 Кбит/сек
Каналы : 6 каналов
Расположение каналов : Front: L C R, Side: L R, LFE
Частота : 48,0 КГц
Метод сжатия : С потерями
Размер потока : 368 Мбайт (2%)
Заголовок : DVO [НТВ+]
Язык : Russian
Default : Нет
Forced : Нет

Аудио #3
Идентификатор : 4
Формат : AC-3
Формат/Информация : Audio Coding 3
Расширение режима : CM (complete main)
Параметр Endianness формата : Big
Идентификатор кодека : A_AC3
Продолжительность : 1 ч. 54 м.
Вид битрейта : Постоянный
Битрейт : 448 Кбит/сек
Каналы : 6 каналов
Расположение каналов : Front: L C R, Side: L R, LFE
Частота : 48,0 КГц
Метод сжатия : С потерями
Размер потока : 368 Мбайт (2%)
Заголовок : AVO [Ю.Сербин]
Язык : Russian
Default : Нет
Forced : Нет

Аудио #4
Идентификатор : 5
Формат : DTS
Формат/Информация : Digital Theater Systems
Режим : 16
Параметр Endianness формата : Big
Идентификатор кодека : A_DTS
Продолжительность : 1 ч. 54 м.
Вид битрейта : Постоянный
Битрейт : 1509 Кбит/сек
Каналы : 6 каналов
Расположение каналов : Front: L C R, Side: L R, LFE
Частота : 48,0 КГц
Битовая глубина : 24 бит
Метод сжатия : С потерями
Размер потока : 1,21 Гбайт (7%)
Язык : Portuguese
Default : Нет
Forced : Нет

Текст #1
Идентификатор : 6
Формат : UTF-8
Идентификатор кодека : S_TEXT/UTF8
Идентификатор кодека/Информация : UTF-8 Plain Text
Язык : Russian
Default : Нет
Forced : Нет

Текст #2
Идентификатор : 7
Формат : UTF-8
Идентификатор кодека : S_TEXT/UTF8
Идентификатор кодека/Информация : UTF-8 Plain Text
Язык : English
Default : Нет
Forced : Нет

Меню
00:00:00.000 : en:Chapter 01
00:11:46.642 : en:Chapter 02
00:24:03.128 : en:Chapter 03
00:37:39.610 : en:Chapter 04
00:52:08.228 : en:Chapter 05
01:07:41.911 : en:Chapter 06
01:21:57.432 : en:Chapter 07
01:36:44.401 : en:Chapter 08
 

Вложения

  • 89,5 KB Просмотры: 1
    Личеров 0
    Сидеров 0
    Файлов 1
    Объем 17,7 GB

Привет!

Мы группа людей которые решили помочь другим в решении их проблем, а так же пользователям с поиском самых свежих и качественных инфопродуктов. За 4 с небольшим месяца мы создали этот форум на который заходят ежедневно тысячи человек и посещаемость постоянно растёт. Мы создали панель лицензирования для защиты PHP скриптов от воровства и SEO панель для мониторинга наших сайтов и выбора верной стратегии их развития. Мы надеемся что то что мы создали пригодится Вам и возможно Вы поможете нам развиваться и совершенствоваться вместе с Вами.

Статистика форума

Темы
404.608
Сообщения
461.507
Пользователи
80.353
Новый пользователь
katnenka

Приложения форума для iOS и Android


У ркн там нет власти ;)
Приватные разговоры
Помощь Пользователи
    Вы не присоединились ни к одной комнате.