За последнюю неделю опубликовано 29 новых материалов.
Инструкция новичку Путеводитель по форуму Прокси для Telegram Показать подсказки , это бомба!

Скачать Электромагнитное излучение / EMR (2004) DVDRip | L1 бесплатно через торрент

  • Поучаствуй (в качестве покупателя) в любых пяти совместных покупках (кроме завершённых и "Моментальных") и получи группу "Новичок" навсегда -> ссылка на раздел
  • Получай до 480 рублей за каждого приглашенного пользователя!
    представляем Вам очередное расширение партнерской программы, подробности описаны тут -> ссылка
  • 90% материалов доступно к скачиванию после простой регистрации!
    Если же ты хочешь скачивать материалы без требования оставлять отзывы то получи группу "Новичок", 10 способов повышения описаны тут -> ссылка
  • К сожалению количество битых ссылок растет и мы уже не можем их оперативно восстанавливать поэтому просим помощи у каждого нашего пользователя.
    С сегодняшнего дня, за каждую восстановленную ссылку мы заплатим Вам.
    Подробнее тут -> ссылка
  • Перенесем твои заслуги с другого ресурса!
    Мы понимаем как сложно прокачивать аккаунты на форумах, вроде раскачал аккаунт, а тут появляется ресурс в 100 раз круче но тоже с системой прокачки и снова качать аккаунт...
    Предлагаем вам перенести Ваши заслуги на другом подобном ресурсе к нам.
    Подробности описаны тут -> ссылка
  • Вы можете получать по 2.5% с каждой покупки и продажи на маркете! Подробности в теме Партнёрская программа
Если Вы не хотите скачивать, Вы всегда можетепосмотретьонлайн, просто нажмите кнопку ниже :

Открыть плеер

Torrent_Bot

Торрент-Бот
Бот форума
4 Окт 2016
93
155
20
Электромагнитное излучение / EMR

Страна: Великобритания США
Производство: Cottonopolis Films Limited
Год выпуска: 2004
Жанр:триллер
Продолжительность: 01:26:26

Режиссеры: Джеймс Эрскин, Дэнни МакКалло
Авторы сценария: Джеймс Эрскин, Дэнни МакКалло

В ролях: Энтони Азизи, Джил Беллоуз, Кейт Баффери, Джордж Калил, Лара Казалет, Кевин Кристи, Уитни Каммингс, Тоби Данцик, Том Харди

Описание: Адам — одинокий молодой человек, страдающий эпилепсией. Он работает в крупной фармацевтической компании в Лондоне. У него нет друзей, единственный человек, с которым он общается — это его виртуальная подруга Лиза, живущая в Сан-Франциско, которую он никогда не встречал в реальной жизни. Однажды вечером во время приступа он теряет сознание, и когда приходит в себя, то с удивлением понимает, что находится в постели с Лизой на другом краю света…

Вновь потеряв сознание, он пробуждается только для того, чтобы обнаружить себя в Мексике, в ванной, полной его собственной крови и с уродливым шрамом на спине, в том месте, где должны быть его почки. Но приступ проходит, и Адам оказывается у себя дома, в Лондоне. Списав все на ночные кошмары, он отправляется на работу. Но почему тогда так отчетливо болит шрам на спине, а на работе ему заявляют, что он отсутствовал больше месяца…



Перевод: Любительский (одноголосый, закадровый)
Субтитры: нет


Качество: DVDRip
Формат: AVI
Видео кодек: XviD
Аудио кодек: МР3
Видео: 720x416 (1.731), 25.000 fps, XviD ~997 kbps avg
Аудио: 48.0 kHz, MPEG Layer 3, 2 ch, ~128 kbps

Дата премьеры (мир): 8 марта 2004

Media Info
General
Complete name : EMR.(rus).avi
Format : AVI
Format/Info : Audio Video Interleave
File size : 700 MiB
Duration : 1h 26mn
Overall bit rate : 1 132 Kbps
Writing application : VirtualDubMod 1.5.4.1 (build 2178/release)
Writing library : VirtualDubMod build 2178/release

Video
ID : 0
Format : MPEG-4 Visual
Format profile : Advanced Simple@L5
Format settings, BVOP : 1
Format settings, QPel : No
Format settings, GMC : No warppoints
Format settings, Matrix : Custom
Codec ID : XVID
Codec ID/Hint : XviD
Duration : 1h 26mn
Bit rate : 997 Kbps
Width : 720 pixels
Height : 416 pixels
Display aspect ratio : 1.731
Frame rate : 25.000 fps
Color space : YUV
Chroma subsampling : 4:2:0
Bit depth : 8 bits
Scan type : Progressive
Compression mode : Lossy
Bits/(Pixel*Frame) : 0.133
Stream size : 616 MiB (88%)
Writing library : XviD 1.0.3 (UTC 2004-12-20)

Audio
ID : 1
Format : MPEG Audio
Format version : Version 1
Format profile : Layer 3
Mode : Joint stereo
Mode extension : MS Stereo
Codec ID : 55
Codec ID/Hint : MP3
Duration : 1h 26mn
Bit rate mode : Constant
Bit rate : 128 Kbps
Channel(s) : 2 channels
Sampling rate : 48.0 KHz
Compression mode : Lossy
Stream size : 79.1 MiB (11%)
Alignment : Aligned on interleaves
Interleave, duration : 80 ms (2.00 video frames)
Interleave, preload duration : 504 ms
Writing library : LAME3.96r
Encoding settings : -m j -V 4 -q 2 -lowpass 17.5 -b 128
Скриншоты
 

Вложения

  • 14,6 KB Просмотры: 1
    Личеров 0
    Сидеров 0
    Файлов 1
    Объем 700 MB

Привет!

Мы группа людей которые решили помочь другим в решении их проблем, а так же пользователям с поиском самых свежих и качественных инфопродуктов. За 4 с небольшим месяца мы создали этот форум на который заходят ежедневно тысячи человек и посещаемость постоянно растёт. Мы создали панель лицензирования для защиты PHP скриптов от воровства и SEO панель для мониторинга наших сайтов и выбора верной стратегии их развития. Мы надеемся что то что мы создали пригодится Вам и возможно Вы поможете нам развиваться и совершенствоваться вместе с Вами.

Статистика форума

Темы
406.538
Сообщения
464.649
Пользователи
83.256
Новый пользователь
Asasa33

Приложения форума для iOS и Android


У ркн там нет власти ;)
Приватные разговоры
Помощь Пользователи
    Вы не присоединились ни к одной комнате.