За последнюю неделю опубликовано 34 новых материалов.
Инструкция новичку Путеводитель по форуму Прокси для Telegram Показать подсказки , это бомба!

Скачать Экспириенс (2015) HDTVRip-AVC бесплатно через торрент

  • Поучаствуй (в качестве покупателя) в любых пяти совместных покупках (кроме завершённых и "Моментальных") и получи группу "Новичок" навсегда -> ссылка на раздел
  • Получай до 480 рублей за каждого приглашенного пользователя!
    представляем Вам очередное расширение партнерской программы, подробности описаны тут -> ссылка
  • 90% материалов доступно к скачиванию после простой регистрации!
    Если же ты хочешь скачивать материалы без требования оставлять отзывы то получи группу "Новичок", 10 способов повышения описаны тут -> ссылка
  • К сожалению количество битых ссылок растет и мы уже не можем их оперативно восстанавливать поэтому просим помощи у каждого нашего пользователя.
    С сегодняшнего дня, за каждую восстановленную ссылку мы заплатим Вам.
    Подробнее тут -> ссылка
  • Перенесем твои заслуги с другого ресурса!
    Мы понимаем как сложно прокачивать аккаунты на форумах, вроде раскачал аккаунт, а тут появляется ресурс в 100 раз круче но тоже с системой прокачки и снова качать аккаунт...
    Предлагаем вам перенести Ваши заслуги на другом подобном ресурсе к нам.
    Подробности описаны тут -> ссылка
  • Вы можете получать по 2.5% с каждой покупки и продажи на маркете! Подробности в теме Партнёрская программа
Если Вы не хотите скачивать, Вы всегда можетепосмотретьонлайн, просто нажмите кнопку ниже :

Открыть плеер

Torrent_Bot

Торрент-Бот
Бот форума
4 Окт 2016
93
160
20




Информация о фильме
Название: Экспириенс
Год выхода: 2015
Жанр: Драма
Режиссер: Евгений Татаров
В ролях: Кирилл Жандаров, Галина Сумина, Юрий Елагин, Ирина Ларионова, Владимир Меньшов, Евгений Леонов-Гладышев, Александр Тютрюмов, Ирина Яковлева, Владимир Матвеев, Георгий Пицхелаури, Сергей Рост, Андрей Шимко, Анна Королёва, Алексей Васильев, Яков Петров, Михаил Соловьев, Анна Тютрюмова, Евгений Татаров, Будэрдэнэ Энхбат, Никита Маркеев, Анастасия Чистякова

О фильме:
Начинающий ученый вот-вот совершит открытие, которое может принести настоящую сенсацию в науке. Он придумал программу, которая занимается корректировкой памяти. С ее помощью можно сделать так, чтобы у людей больше не было никаких плохих воспоминаний. Проект достиг успеха, ученый получил славу и деньги, но также он осознал, чем грозит вмешательство в человеческих жизненный опыт.



Страна: Россия
Студия: А.Т.К.-Студио
Продолжительность: 01:29:58
Перевод: Не требуется

Файл
Кодек: h.264
Качество: HDTVRip-AVC
Видео: [email protected], ~1860 Кбит/с, 1026x436, 25.000 кадр/с
Звук: AC3, 6 ch, 448 Кбит/с
Субтитры: Нет





M/I
===============================================
x264 info:
frame I:828 Avg QP:11.20 size: 55975
x264 info:
frame P:31604 Avg QP:13.51 size: 20320
x264 info:
frame B:102531 Avg QP:14.99 size: 5525

==================================================================

General
Unique ID : 288066243273812464235450803561794677848 (0xD8B78A56EBE9AEB61A49439E730CAC58)
Complete name : F:FILMSНОВЫЕЭкспириенс.(2006).WEBDL-RIP-AVC.[-=DoMiNo=-].mkv
Format : Matroska
Format version : Version 4 / Version 2
File size : 1.45 GiB
Duration : 1 h 29 min
Overall bit rate : 2 311 kb/s
Movie name : Экспириенс
Deion : Молодой учёный на пороге сенсационного открытия. Его программа по коррекции памяти обещает навсегда избавить людей от негативных воспоминаний. Успех проекта приносит его создателю славу, деньги и. … осознание оборотной стороны вмешательства в жизненный опыт человека.
Writing application : XviD4PSP 7.0.332 DAILY
Writing library : Lavf57.41.100 / Lavf57.41.100
Attachments : poster.jpg
ACTORS : Кирилл Жандаров, Владимир Меньшов, Галина Сумина, Юрий Елагин, Евгений Леонов-Гладышев, Ирина Яковлева, Александр Тютрюмов, Владимир Матвеев, Сергей Рост, Будэрдэнэ Энхбат, Андрей Шимко, Анна Королёва, Алексей Васильев, Яков Петров, Михаил Соловьев, Анна Тютрюмова, Павел Бессонов, Галина Бокашевская, Ольга Каратеева, Николай Сонин, Виталий Кузьмин, Екатерина Белова, Сергей Куницкий, Никита Маркеев, Анастасия Чистякова, Георгий Пицхелаури, Кристина Тулубьева, Анна Петлина, Евгений Татаров, Вадим Бурлаков, Оксана Ильвес, Ирина Ларионова, Кристина Дасарская
COMPOSER : Максим Кошеваров, Александр Маев
COUNTRY : Россия
DATE : 2015
DIRECTOR : Евгений Татаров
ENCODING_INFO : MPEGTS > MKV Произвольный / H264 > X264 VBR-2P 1860kbps Произвольный / AC3 > COPY
GENRE : драма
HD_VIDEO : 1
ITUNEXTC : ru-movie|16+|375|
MEDIA_TYPE : 9
PRODUCER : Александр Тютрюмов
RATING : 4.725
WRITER : Виктор Рыбаков

Video
ID : 1
Format : AVC
Format/Info : Advanced Video Codec
Format profile : [email protected]
Format settings, CABAC : Yes
Format settings, ReFrames : 12 frames
Codec ID : V_MPEG4/ISO/AVC
Duration : 1 h 29 min
Bit rate : 1 860 kb/s
Width : 1 026 pixels
Height : 436 pixels
Display aspect ratio : 2.35:1
Frame rate mode : Constant
Frame rate : 25.000 FPS
Color space : YUV
Chroma subsampling : 4:2:0
Bit depth : 8 bits
Scan type : Progressive
Bits/(Pixel*Frame) : 0.166
Stream size : 1.14 GiB (79%)
Title : RIP_[-=DoMiNo=-]
Writing library : x264 core 148 r2744M b97ae06
Encoding settings : cabac=1 / ref=12 / deblock=1:-3:-3 / analyse=0x3:0x133 / me=umh / subme=11 / psy=1 / psy_rd=1.00:0.10 / mixed_ref=1 / me_range=32 / chroma_me=1 / trellis=2 / 8x8dct=1 / cqm=0 / deadzone=21,11 / fast_pskip=0 / chroma_qp_offset=-3 / threads=5 / lookahead_threads=1 / sliced_threads=0 / nr=0 / decimate=1 / interlaced=0 / bluray_compat=0 / constrained_intra=0 / bframes=12 / b_pyramid=2 / b_adapt=2 / b_bias=0 / direct=3 / weightb=1 / open_gop=0 / weightp=2 / keyint=250 / keyint_min=25 / scenecut=40 / intra_refresh=0 / rc=2pass / mbtree=0 / bitrate=1860 / ratetol=1.0 / qcomp=0.60 / qpmin=0 / qpmax=69 / qpstep=4 / cplxblur=20.0 / qblur=0.5 / ip_ratio=1.40 / pb_ratio=1.30 / aq=1:1.00
Default : Yes
Forced : No
Color range : Limited
Color primaries : BT.709
Transfer characteristics : BT.709
Matrix coefficients : BT.709
DURATION : 01:29:58.480000000

Audio
ID : 2
Format : AC-3
Format/Info : Audio Coding 3
Mode extension : CM (complete main)
Format settings, Endianness : Big
Codec ID : A_AC3
Duration : 1 h 29 min
Bit rate mode : Constant
Bit rate : 448 kb/s
Channel(s) : 6 channels
Channel positions : Front: L C R, Side: L R, LFE
Sampling rate : 48.0 kHz
Frame rate : 31.250 FPS (1536 spf)
Bit depth : 16 bits
Compression mode : Lossy
Stream size : 288 MiB (19%)
Title : RUS_6ch
Language : Russian
Default : Yes
Forced : No
DURATION : 01:29:58.368000000

Menu
00:00:00.000 : :Глава 1
00:07:33.359 : :Глава 2
00:17:12.040 : :Глава 3
00:27:23.000 : :Глава 4
00:38:24.960 : :Глава 5
00:49:28.960 : :Глава 6
00:59:27.640 : :Глава 7
01:11:44.800 : :Глава 8
01:20:09.920 : :Глава 9
Скриншоты
 

Вложения

  • 15,4 KB Просмотры: 0
    Личеров 0
    Сидеров 0
    Файлов 1
    Объем 1,5 GB

Привет!

Мы группа людей которые решили помочь другим в решении их проблем, а так же пользователям с поиском самых свежих и качественных инфопродуктов. За 4 с небольшим месяца мы создали этот форум на который заходят ежедневно тысячи человек и посещаемость постоянно растёт. Мы создали панель лицензирования для защиты PHP скриптов от воровства и SEO панель для мониторинга наших сайтов и выбора верной стратегии их развития. Мы надеемся что то что мы создали пригодится Вам и возможно Вы поможете нам развиваться и совершенствоваться вместе с Вами.

Статистика форума

Темы
406.599
Сообщения
464.995
Пользователи
84.340
Новый пользователь
asdasd21

Приложения форума для iOS и Android


У ркн там нет власти ;)
Приватные разговоры
Помощь Пользователи
    Вы не присоединились ни к одной комнате.