За последнюю неделю опубликовано 30 новых материалов.
Инструкция новичку Путеводитель по форуму Прокси для Telegram Показать подсказки , это бомба!

Скачать Эксперимент 2: Волна / Die Welle (2008) BDRip 1080p от KORSAR | P2 бесплатно через торрент

  • Поучаствуй (в качестве покупателя) в любых пяти совместных покупках (кроме завершённых и "Моментальных") и получи группу "Новичок" навсегда -> ссылка на раздел
  • Получай до 480 рублей за каждого приглашенного пользователя!
    представляем Вам очередное расширение партнерской программы, подробности описаны тут -> ссылка
  • 90% материалов доступно к скачиванию после простой регистрации!
    Если же ты хочешь скачивать материалы без требования оставлять отзывы то получи группу "Новичок", 10 способов повышения описаны тут -> ссылка
  • К сожалению количество битых ссылок растет и мы уже не можем их оперативно восстанавливать поэтому просим помощи у каждого нашего пользователя.
    С сегодняшнего дня, за каждую восстановленную ссылку мы заплатим Вам.
    Подробнее тут -> ссылка
  • Перенесем твои заслуги с другого ресурса!
    Мы понимаем как сложно прокачивать аккаунты на форумах, вроде раскачал аккаунт, а тут появляется ресурс в 100 раз круче но тоже с системой прокачки и снова качать аккаунт...
    Предлагаем вам перенести Ваши заслуги на другом подобном ресурсе к нам.
    Подробности описаны тут -> ссылка
  • Вы можете получать по 2.5% с каждой покупки и продажи на маркете! Подробности в теме Партнёрская программа
Если Вы не хотите скачивать, Вы всегда можетепосмотретьонлайн, просто нажмите кнопку ниже :

Открыть плеер

Torrent_Bot

Торрент-Бот
Бот форума
4 Окт 2016
93
160
20
Эксперимент 2: Волна
Die Welle
«Её не остановишь...»


Страна: Германия
Жанр: триллер, драма
Год выпуска: 2008
Продолжительность: 01:46:43
Перевод: Профессиональный (двухголосый, закадровый)
Субтитры: русские, немецкие.


Режиссер: Деннис Ганзель


В ролях: Юрген Фогель, Фредерик Лау, Макс Римельт, Дженнифер Ульрих, Кристиана Пауль, Якоб Маченц, Кристина До Рего, Элиас М'Барек, Максимилиан Воллмер, Макс Мауфф


Описание: Германия. Наши дни. Школьный учитель истории предлагает своим ученикам провести эксперимент: ровно неделю старшеклассники будут жить по законам тоталитарного государства. Жесткая дисциплина, повсеместный контроль, доносы, наказания - нацистская схема воссоздается с пугающей точностью. Ученики на собственном примере убеждаются, с какой легкостью можно манипулировать людьми, превращая их в безликую покорную массу. Но в какой-то момент игра выходит из-под контроля, и теперь ее участникам предстоит дойти до конца и познать самую темную сторону диктатуры.











Качество: BDRip 1080p
Контейнер: MKV

Видео: MPEG-4 AVC, 1916x816 (2.35:1), 9000 kbps, 24 fps, 0,240 bpp
Аудио №1: русский / AC3 / 5.1 / 48 kHz / 448 kbps / DVO
Аудио №2: немецкий / AC3 / 5.1 / 48 kHz / 640 kbps
Навигация по главам: есть


Media Info
Формат : Matroska
Версия формата : Version 2
Размер файла : 7,52 Гбайт
Продолжительность : 1 ч. 46 м.
Общий поток : 10,1 Мбит/сек
Название фильма : = Эксперимент 2: Волна / Die Welle (2008) BDRip 1080p - KORSAR =
Дата кодирования : UTC 2018-08-21 17:29:23
Программа кодирования : mkvmerge v5.8.0 ('No Sleep / Pillow') built on Sep 2 2012 15:37:04
Библиотека кодирования : libebml v1.2.3 + libmatroska v1.3.0
Attachment : Yes

Видео
Идентификатор : 1
Формат : AVC
Формат/Информация : Advanced Video Codec
Профиль формата : [email protected]
Параметр CABAC формата : Да
Параметр ReFrames формата : 5 кадров
Идентификатор кодека : V_MPEG4/ISO/AVC
Продолжительность : 1 ч. 46 м.
Битрейт : 9000 Кбит/сек
Ширина : 1916 пикселей
Высота : 816 пикселей
Соотношение сторон : 2,35:1
Режим частоты кадров : Постоянный
Частота кадров : 24,000 кадра/сек
Цветовое пространство : YUV
Субдискретизация насыщенности : 4:2:0
Битовая глубина : 8 бит
Тип развёртки : Прогрессивная
Бит/(Пиксели*Кадры) : 0.240
Размер потока : 6,56 Гбайт (87%)
Заголовок : Эксперимент 2: Волна / Die Welle (2008) BDRip 1080p - KORSAR
Библиотека кодирования : x264 core 148 r2744kMod b97ae06
Настройки программы : cabac=1 / ref=5 / deblock=1:-3:-3 / analyse=0x3:0x113 / me=umh / subme=11 / psy=1 / fade_compensate=0.00 / psy_rd=1.00:0.06 / mixed_ref=1 / me_range=48 / chroma_me=1 / trellis=2 / 8x8dct=1 / cqm=0 / deadzone=21,11 / fast_pskip=0 / chroma_qp_offset=-3 / threads=12 / lookahead_threads=3 / sliced_threads=0 / nr=0 / decimate=0 / interlaced=0 / bluray_compat=0 / constrained_intra=0 / bframes=10 / b_pyramid=2 / b_adapt=2 / b_bias=0 / direct=3 / weightb=1 / open_gop=0 / weightp=2 / keyint=240 / keyint_min=24 / scenecut=40 / intra_refresh=0 / rc_lookahead=60 / rc=2pass / mbtree=0 / bitrate=9000 / ratetol=1.0 / qcomp=0.66 / qpmin=0 / qpmax=39 / qpstep=4 / cplxblur=20.0 / qblur=0.5 / vbv_maxrate=50000 / vbv_bufsize=62500 / nal_hrd=none / filler=0 / ip_ratio=1.40 / pb_ratio=1.30 / aq=3:0.80
Язык : German
Default : Да
Forced : Нет
Основные цвета : BT.709
Характеристики трансфера : BT.709
Коэффициенты матрицы : BT.709

Аудио #1
Идентификатор : 2
Формат : AC-3
Формат/Информация : Audio Coding 3
Расширение режима : CM (complete main)
Параметр Endianness формата : Big
Идентификатор кодека : A_AC3
Продолжительность : 1 ч. 46 м.
Вид битрейта : Постоянный
Битрейт : 448 Кбит/сек
Каналы : 6 каналов
Расположение каналов : Front: L C R, Side: L R, LFE
Частота : 48,0 КГц
Битовая глубина : 16 бит
Метод сжатия : С потерями
Размер потока : 342 Мбайт (4%)
Заголовок : DVO
Язык : Russian
Default : Да
Forced : Нет

Аудио #2
Идентификатор : 3
Формат : AC-3
Формат/Информация : Audio Coding 3
Расширение режима : CM (complete main)
Параметр Endianness формата : Big
Идентификатор кодека : A_AC3
Продолжительность : 1 ч. 46 м.
Вид битрейта : Постоянный
Битрейт : 640 Кбит/сек
Каналы : 6 каналов
Расположение каналов : Front: L C R, Side: L R, LFE
Частота : 48,0 КГц
Битовая глубина : 16 бит
Метод сжатия : С потерями
Размер потока : 489 Мбайт (6%)
Язык : German
Default : Нет
Forced : Нет

Текст #1
Идентификатор : 4
Формат : UTF-8
Идентификатор кодека : S_TEXT/UTF8
Идентификатор кодека/Информация : UTF-8 Plain Text
Язык : Russian
Default : Нет
Forced : Нет

Текст #2
Идентификатор : 5
Формат : UTF-8
Идентификатор кодека : S_TEXT/UTF8
Идентификатор кодека/Информация : UTF-8 Plain Text
Язык : German
Default : Нет
Forced : Нет

Меню
00:00:00.000 : en:00:00:00.000
00:07:25.792 : en:00:07:25.792
00:11:41.042 : en:00:11:41.042
00:17:30.417 : en:00:17:30.417
00:23:24.750 : en:00:23:24.750
00:28:19.333 : en:00:28:19.333
00:33:50.875 : en:00:33:50.875
00:38:18.042 : en:00:38:18.042
00:43:23.708 : en:00:43:23.708
00:48:28.208 : en:00:48:28.208
00:53:34.875 : en:00:53:34.875
00:59:12.792 : en:00:59:12.792
01:04:45.125 : en:01:04:45.125
01:10:00.292 : en:01:10:00.292
01:15:02.042 : en:01:15:02.042
01:18:56.500 : en:01:18:56.500
01:24:19.583 : en:01:24:19.583
01:29:29.375 : en:01:29:29.375
01:35:49.542 : en:01:35:49.542
01:41:25.167 : en:01:41:25.167


Скриншоты

 

Вложения

  • 38,5 KB Просмотры: 1
    Личеров 0
    Сидеров 0
    Файлов 1
    Объем 7,5 GB

Привет!

Мы группа людей которые решили помочь другим в решении их проблем, а так же пользователям с поиском самых свежих и качественных инфопродуктов. За 4 с небольшим месяца мы создали этот форум на который заходят ежедневно тысячи человек и посещаемость постоянно растёт. Мы создали панель лицензирования для защиты PHP скриптов от воровства и SEO панель для мониторинга наших сайтов и выбора верной стратегии их развития. Мы надеемся что то что мы создали пригодится Вам и возможно Вы поможете нам развиваться и совершенствоваться вместе с Вами.

Статистика форума

Темы
406.620
Сообщения
465.088
Пользователи
84.529
Новый пользователь
ksa_naif

Приложения форума для iOS и Android


У ркн там нет власти ;)
Приватные разговоры
Помощь Пользователи
    Вы не присоединились ни к одной комнате.