За последнюю неделю опубликовано 30 новых материалов.
Инструкция новичку Путеводитель по форуму Прокси для Telegram Показать подсказки , это бомба!

Скачать Экипаж (1979) HDTVRip 720p от KORSAR | Широкоэкранная версия бесплатно через торрент

  • Поучаствуй (в качестве покупателя) в любых пяти совместных покупках (кроме завершённых и "Моментальных") и получи группу "Новичок" навсегда -> ссылка на раздел
  • Получай до 480 рублей за каждого приглашенного пользователя!
    представляем Вам очередное расширение партнерской программы, подробности описаны тут -> ссылка
  • 90% материалов доступно к скачиванию после простой регистрации!
    Если же ты хочешь скачивать материалы без требования оставлять отзывы то получи группу "Новичок", 10 способов повышения описаны тут -> ссылка
  • К сожалению количество битых ссылок растет и мы уже не можем их оперативно восстанавливать поэтому просим помощи у каждого нашего пользователя.
    С сегодняшнего дня, за каждую восстановленную ссылку мы заплатим Вам.
    Подробнее тут -> ссылка
  • Перенесем твои заслуги с другого ресурса!
    Мы понимаем как сложно прокачивать аккаунты на форумах, вроде раскачал аккаунт, а тут появляется ресурс в 100 раз круче но тоже с системой прокачки и снова качать аккаунт...
    Предлагаем вам перенести Ваши заслуги на другом подобном ресурсе к нам.
    Подробности описаны тут -> ссылка
  • Вы можете получать по 2.5% с каждой покупки и продажи на маркете! Подробности в теме Партнёрская программа
Если Вы не хотите скачивать, Вы всегда можетепосмотретьонлайн, просто нажмите кнопку ниже :

Открыть плеер

Torrent_Bot

Торрент-Бот
Бот форума
4 Окт 2016
93
160
20





Экипаж
Страна: СССР
Жанр: Фильм-катастрофа, боевик, триллер, драма
Год выпуска: 1979
Продолжительность: 02:14:46
Режиссер: Александр Митта
В ролях: Георгий Жжёнов, Анатолий Васильев, Леонид Филатов, Александра Яковлева, Ирина Акулова, Екатерина Васильева, Юрий Горобец, Александр Павлов, Галина Гладкова, Рома Монин (озвучание - Клара Румянова), Комаки Курихара, Елена Коренева, Владимир Иванов, Алексей Якубов, Антон Табаков, Ирина Савина, Лариса Барабанова, Владимир Маренков, Александр Пашутин, Александр Потапов, Клара Румянова, Иван Рыжов, Ирина Санпитер, Мария Скворцова, Леонид Чубаров, Герман Юшко

Описание: СССР, конец 1970-х годов. Герои фильма — экипаж пассажирского самолёта "Ту-154", совершающий международные рейсы. Игорь Скворцов — бортинженер, меняет любовниц одну за другой. Последней в его донжуанском списке становится стюардесса Тамара - внучка старого друга командира экипажа, Андрея Васильевича Тимченко. Бывший член экипажа Валентин Ненароков, перешедший из большой авиации в малую, страдает от непрерывных скандалов, которые ему закатывает жена Алевтина. У самого Тимченко в семье тоже проблемы: дочь забеременела, но выходить замуж за отца ребёнка отказывается. После очередной ежегодной медкомиссии Тимченко узнаёт, что, вполне вероятно, его вскоре отстранят от полётов по состоянию здоровья. А тут еще экипажу предстоит сложный рейс за границу, в город нефтяников Бидри, где случилось землетрясение большой разрушительной силы...


Релиз от:


Качество: HDTVRip 720p
Формат: MKV
Видео: MPEG-4 AVC, 1278x718, 25 fps, 5949 Кбит/с
Аудио: AC3, 2 ch, 192 Кбит/с
Язык: Русский

Скриншоты
Инфо файл
x264 [info]: frame I:1169 Avg QP:16.36 size:176260
x264 [info]: frame P:39070 Avg QP:17.81 size: 82659
x264 [info]: frame B:161934 Avg QP:20.21 size: 16691
x264 [info]: consecutive B-frames: 1.1% 1.1% 3.9% 11.0% 17.1% 60.5% 4.0% 0.4% 0.4% 0.3% 0.2%
Общее
Уникальный идентификатор : 192984194286921859729360620403459293726 (0x912F67632D2C871CA01B97CA3E97021E)
Полное имя : D:Экипаж_1979_HDTVRip 720p_KORSAR.mkv
Формат : Matroska
Версия формата : Version 2
Размер файла : 5,90 Гбайт
Продолжительность : 2 ч. 14 м.
Общий поток : 6 266 Кбит/сек
Название фильма : Экипаж_1979_HDTVRip 720p_KORSAR
Дата кодирования : UTC 2020-04-29 16:12:59
Программа кодирования : mkvmerge v5.8.0 ('No Sleep / Pillow') built on Sep 2 2012 15:37:04
Библиотека кодирования : libebml v1.2.3 + libmatroska v1.3.0

Видео
Идентификатор : 1
Формат : AVC
Формат/Информация : Advanced Video Codec
Профиль формата : [email protected]
Настройки формата : CABAC / 9 Ref Frames
Параметр CABAC формата : Да
Параметр RefFrames формата : 9 кадров
Идентификатор кодека : V_MPEG4/ISO/AVC
Продолжительность : 2 ч. 14 м.
Битрейт : 5 949 Кбит/сек
Ширина : 1 278 пикселей
Высота : 718 пикселей
Соотношение сторон : 16:9
Режим частоты кадров : Постоянный
Частота кадров : 25,000 кадров/сек
Цветовое пространство : YUV
Субдискретизация насыщенности : 4:2:0
Битовая глубина : 8 бит
Тип развёртки : Прогрессивная
Бит/(Пиксели*Кадры) : 0.259
Размер потока : 5,60 Гбайт (95%)
Библиотека кодирования : x264 core 152 r2851kMod ba24899
Настройки программы : cabac=1 / ref=9 / deblock=1:-2:-2 / analyse=0x3:0x113 / me=umh / subme=11 / psy=1 / fade_compensate=0.00 / psy_rd=1.03:0.13 / mixed_ref=1 / me_range=48 / chroma_me=1 / trellis=2 / 8x8dct=1 / cqm=0 / deadzone=21,11 / fast_pskip=1 / chroma_qp_offset=-3 / threads=4 / lookahead_threads=1 / sliced_threads=0 / nr=0 / decimate=1 / interlaced=0 / bluray_compat=0 / constrained_intra=0 / bframes=10 / b_pyramid=2 / b_adapt=2 / b_bias=0 / direct=1 / weightb=1 / open_gop=0 / weightp=2 / keyint=250 / keyint_min=25 / scenecut=40 / intra_refresh=0 / rc_lookahead=40 / rc=crf / mbtree=0 / crf=18.5000 / qcomp=0.63 / qpmin=0 / qpmax=33 / qpstep=4 / vbv_maxrate=50000 / vbv_bufsize=62500 / crf_max=0.0 / nal_hrd=none / filler=0 / ip_ratio=1.40 / pb_ratio=1.30 / aq=3:0.80
Default : Да
Forced : Нет
Цветовой диапазон : Limited
Основные цвета : BT.709
Характеристики трансфера : BT.709
Коэффициенты матрицы : BT.709
Duration_Source : General_Duration

Аудио
Идентификатор : 2
Формат : AC-3
Формат/Информация : Audio Coding 3
Коммерческое название : Dolby Digital
Идентификатор кодека : A_AC3
Продолжительность : 2 ч. 14 м.
Вид битрейта : Постоянный
Битрейт : 192 Кбит/сек
Каналы : 2 канала
Channel layout : L R
Частота : 48,0 КГц
Частота кадров : 31,250 кадров/сек (1536 SPF)
Метод сжатия : С потерями
Размер потока : 185 Мбайт (3%)
Язык : Russian

Default : Да
Forced : Нет
Duration_Source : General_Duration
Доп. информация:
есть три баннера с возрастным ограничением, других баннеров нет. Телевизионщики почему-то вырезали сцену с надписью "Вторая серия" (при этом сцены с надписями "Первая серия" и "Конец первой серии" оставили на месте). Финальные титры ускорены примерно в 2 раза.
Сравнения:
Сравнение с версией 4:3 https://www.screenshotcomparison.com/comparison/2080/picture:0
Сравнение с исходником https://www.screenshotcomparison.com/comparison/2083/picture:0
 

Вложения

  • 30,4 KB Просмотры: 0
    Личеров 0
    Сидеров 0
    Файлов 1
    Объем 5,9 GB

Привет!

Мы группа людей которые решили помочь другим в решении их проблем, а так же пользователям с поиском самых свежих и качественных инфопродуктов. За 4 с небольшим месяца мы создали этот форум на который заходят ежедневно тысячи человек и посещаемость постоянно растёт. Мы создали панель лицензирования для защиты PHP скриптов от воровства и SEO панель для мониторинга наших сайтов и выбора верной стратегии их развития. Мы надеемся что то что мы создали пригодится Вам и возможно Вы поможете нам развиваться и совершенствоваться вместе с Вами.

Статистика форума

Темы
406.605
Сообщения
465.025
Пользователи
84.385
Новый пользователь
SomeCat123

Приложения форума для iOS и Android


У ркн там нет власти ;)
Приватные разговоры
Помощь Пользователи
    Вы не присоединились ни к одной комнате.