За последнюю неделю опубликовано 81 новых материалов.
Инструкция новичку Путеводитель по форуму Прокси для Telegram Показать подсказки , это бомба!

Скачать Джуманджи: Зов джунглей / Jumanji: Welcome to the Jungle (2017) WEB-DLRip-AVC от Generalfilm | iTunes бесплатно через торрент

  • Поучаствуй (в качестве покупателя) в любых пяти совместных покупках (кроме завершённых и "Моментальных") и получи группу "Новичок" навсегда -> ссылка на раздел
  • Получай до 480 рублей за каждого приглашенного пользователя!
    представляем Вам очередное расширение партнерской программы, подробности описаны тут -> ссылка
  • 90% материалов доступно к скачиванию после простой регистрации!
    Если же ты хочешь скачивать материалы без требования оставлять отзывы то получи группу "Новичок", 10 способов повышения описаны тут -> ссылка
  • К сожалению количество битых ссылок растет и мы уже не можем их оперативно восстанавливать поэтому просим помощи у каждого нашего пользователя.
    С сегодняшнего дня, за каждую восстановленную ссылку мы заплатим Вам.
    Подробнее тут -> ссылка
  • Перенесем твои заслуги с другого ресурса!
    Мы понимаем как сложно прокачивать аккаунты на форумах, вроде раскачал аккаунт, а тут появляется ресурс в 100 раз круче но тоже с системой прокачки и снова качать аккаунт...
    Предлагаем вам перенести Ваши заслуги на другом подобном ресурсе к нам.
    Подробности описаны тут -> ссылка
  • Вы можете получать по 2.5% с каждой покупки и продажи на маркете! Подробности в теме Партнёрская программа
Если Вы не хотите скачивать, Вы всегда можетепосмотретьонлайн, просто нажмите кнопку ниже :

Открыть плеер

Torrent_Bot

Торрент-Бот
Бот форума
4 Окт 2016
104
152
20
46968df6aea8b829fbcd358cd381619d.png
Информация о фильме
Название: Джуманджи: Зов джунглей
Оригинальное название: Jumanji: Welcome to the Jungle
Год выпуска: 2017
Страна: США
Жанр: фэнтези, боевик, комедия, приключения


Перевод: Дублированный [iTunes]
Субтитры: Русские (forced,full)
Продолжительность: 01:59:01

Режиссер: Джейк Кэздан
В ролях: Дуэйн Джонсон (Spencer), Кевин Харт (Fridge), Джек Блэк (Bethany), Карен Гиллан (Martha), Риз Дэрби (Nigel), Бобби Каннавале (Van Pelt), Ник Джонас (Alex), Алекс Вулф (Young Spencer), Сер’Дариус Блэйн (Young Fridge), Мэдисон Исман (Young Bethany), Морган Тернер (Young Martha), Шон Бакстон (Jogger)


Описание:
Четверо подростков оказываются внутри игры «Джуманджи». Их ждет схватка с носорогами, черными мамбами, а на каждом шагу будет подстерегать бесконечная череда ловушек и головоломок. Чтобы пройти игру и остаться в живых, им придется перевоплотиться в персонажей игры: робкий и застенчивый Спенсер превращается в отважного и сильного исследователя, здоровяк Фридж - в коротышку, модница и красавица Беттани - в профессора, а неуклюжая и нескладная Марта становится бесстрашной и ловкой амазонкой. Друзьям придется привыкнуть к совершенно новым и таким непривычным для себя ролям и найти дорогу домой.

Рейтинг:

MPAA: PG-13 - Детям до 13 лет просмотр не желателен


Качество: WEB-DLRip-AVC
Формат: MKV
Видео: AVC, 1024x430 (2.40:1), 2400 kbps, 23,976 fps, 0,227 bpp
Аудио: русский / AC3 / 5.1 / 48 kHz / 384 kbps / ||
Навигация по главам: есть


Релиз от: 36ed0bb2db6c0079ab2c91b17628ad92.gif


ОтчетМедиаИнфо
General
Unique ID : 232548862285027279037071026393143400438 (0xAEF348202A1E8A2AB359A44769D157F6)
Complete name : E:Jumanji.Welcome.to.the.Jungle.2017.WEB-DLRip-AVC.by.White Smoke.R.G.Generalfilm.mkv
Format : Matroska
Format version : Version 4 / Version 2
File size : 2.31 GiB
Duration : 1 h 59 min
Overall bit rate : 2 784 kb/s
Movie name : Jumanji.Welcome.to.the.Jungle.2017.WEB-DLRip-AVC.by.White Smoke.R.G.Generalfilm.mkv
Encoded date : UTC 2018-03-06 10:06:04
Writing application : mkvmerge v6.8.0 ('Theme for Great Cities') 64bit built on Mar 2 2014 21:34:26
Writing library : libebml v1.3.0 + libmatroska v1.4.1

Video
ID : 1
Format : AVC
Format/Info : Advanced Video Codec
Format profile : High@L4.1
Format settings, CABAC : Yes
Format settings, ReFrames : 10 frames
Codec ID : V_MPEG4/ISO/AVC
Duration : 1 h 59 min
Bit rate : 2 400 kb/s
Width : 1 024 pixels
Height : 430 pixels
Display aspect ratio : 2.40:1
Frame rate mode : Constant
Frame rate : 23.976 (24000/1001) FPS
Color space : YUV
Chroma subsampling : 4:2:0
Bit depth : 8 bits
Scan type : Progressive
Bits/(Pixel*Frame) : 0.227
Stream size : 1.95 GiB (84%)
Writing library : x264 core 148 r2638 7599210
Encoding settings : cabac=1 / ref=10 / deblock=1:-2:-1 / analyse=0x3:0x113 / me=umh / subme=11 / psy=1 / psy_rd=0.00:0.15 / mixed_ref=1 / me_range=32 / chroma_me=1 / trellis=2 / 8x8dct=1 / cqm=0 / deadzone=21,11 / fast_pskip=0 / chroma_qp_offset=-3 / threads=6 / lookahead_threads=1 / sliced_threads=0 / nr=0 / decimate=0 / interlaced=0 / bluray_compat=0 / constrained_intra=0 / bframes=10 / b_pyramid=2 / b_adapt=2 / b_bias=0 / direct=1 / weightb=1 / open_gop=0 / weightp=2 / keyint=240 / keyint_min=23 / scenecut=40 / intra_refresh=0 / rc_lookahead=40 / rc=2pass / mbtree=1 / bitrate=2400 / ratetol=1.0 / qcomp=0.65 / qpmin=0 / qpmax=69 / qpstep=4 / cplxblur=20.0 / qblur=0.5 / vbv_maxrate=50000 / vbv_bufsize=65500 / nal_hrd=none / filler=0 / ip_ratio=1.40 / aq=1:1.00
Language : English
Default : Yes
Forced : No

Audio
ID : 2
Format : AC-3
Format/Info : Audio Coding 3
Mode extension : CM (complete main)
Format settings, Endianness : Big
Codec ID : A_AC3
Duration : 1 h 59 min
Bit rate mode : Constant
Bit rate : 384 kb/s
Channel(s) : 6 channels
Channel positions : Front: L C R, Side: L R, LFE
Sampling rate : 48.0 kHz
Frame rate : 31.250 FPS (1536 spf)
Compression mode : Lossy
Stream size : 327 MiB (14%)
Title : iTunes
Language : Russian
Default : Yes
Forced : No

Text #1
ID : 3
Format : UTF-8
Codec ID : S_TEXT/UTF8
Codec ID/Info : UTF-8 Plain Text
Title : forced
Language : Russian
Default : Yes
Forced : No

Text #2
ID : 4
Format : UTF-8
Codec ID : S_TEXT/UTF8
Codec ID/Info : UTF-8 Plain Text
Title : full
Language : Russian
Default : No
Forced : No

Menu
00:00:00.000 : en:1
00:07:17.103 : en:2
00:17:14.991 : en:3
00:23:22.232 : en:4
00:29:23.967 : en:5
00:42:27.542 : en:6
00:47:10.156 : en:7
00:54:25.715 : en:8
01:03:19.831 : en:9
01:10:20.792 : en:10
01:15:50.663 : en:11
01:24:09.077 : en:12
01:28:19.284 : en:13
01:33:47.402 : en:14
01:42:21.873 : en:15
01:48:30.825 : en:16
Скриншоты
b2f968116e1e56932b8c7d86002fd66e.jpeg4ef1836a1e4838f16009e900bef212db.jpega21c0eb16b4ae535f01206ee93ab2fbf.jpeg4a052e94c9fe7594cc9acfbe106a04f5.jpeg56401a73c2be1eb6786dcb1debb09a3e.jpegaa02129dc3d1920f79cb8f8ccc3bdea1.jpeg
 

Вложения

Привет!

Мы группа людей которые решили помочь другим в решении их проблем, а так же пользователям с поиском самых свежих и качественных инфопродуктов. За 4 с небольшим месяца мы создали этот форум на который заходят ежедневно тысячи человек и посещаемость постоянно растёт. Мы создали панель лицензирования для защиты PHP скриптов от воровства и SEO панель для мониторинга наших сайтов и выбора верной стратегии их развития. Мы надеемся что то что мы создали пригодится Вам и возможно Вы поможете нам развиваться и совершенствоваться вместе с Вами.

Статистика форума

Темы
404.542
Сообщения
461.456
Пользователи
80.099
Новый пользователь
анатолий1236

Приложения форума для iOS и Android


У ркн там нет власти ;)
Приватные разговоры
Помощь Пользователи
    Вы не присоединились ни к одной комнате.