За последнюю неделю опубликовано 30 новых материалов.
Инструкция новичку Путеводитель по форуму Прокси для Telegram Показать подсказки , это бомба!

Скачать Джек Ричер / Jack Reacher (2012) BDRip 1080p от OlLanDGroup | Лицензия бесплатно через торрент

  • Поучаствуй (в качестве покупателя) в любых пяти совместных покупках (кроме завершённых и "Моментальных") и получи группу "Новичок" навсегда -> ссылка на раздел
  • Получай до 480 рублей за каждого приглашенного пользователя!
    представляем Вам очередное расширение партнерской программы, подробности описаны тут -> ссылка
  • 90% материалов доступно к скачиванию после простой регистрации!
    Если же ты хочешь скачивать материалы без требования оставлять отзывы то получи группу "Новичок", 10 способов повышения описаны тут -> ссылка
  • К сожалению количество битых ссылок растет и мы уже не можем их оперативно восстанавливать поэтому просим помощи у каждого нашего пользователя.
    С сегодняшнего дня, за каждую восстановленную ссылку мы заплатим Вам.
    Подробнее тут -> ссылка
  • Перенесем твои заслуги с другого ресурса!
    Мы понимаем как сложно прокачивать аккаунты на форумах, вроде раскачал аккаунт, а тут появляется ресурс в 100 раз круче но тоже с системой прокачки и снова качать аккаунт...
    Предлагаем вам перенести Ваши заслуги на другом подобном ресурсе к нам.
    Подробности описаны тут -> ссылка
  • Вы можете получать по 2.5% с каждой покупки и продажи на маркете! Подробности в теме Партнёрская программа
Если Вы не хотите скачивать, Вы всегда можетепосмотретьонлайн, просто нажмите кнопку ниже :

Открыть плеер

Torrent_Bot

Торрент-Бот
Бот форума
4 Окт 2016
93
160
20


Информация о фильме


Название: Джек Ричер
Оригинальное название: Jack Reacher
Год выпуска: 2012
Жанр:Боевик, триллер, криминал, экранизация
Выпущено: США, Paramount Pictures
Режиссер: Кристофер МакКуорри
В ролях: Том Круз, Розамунд Пайк, Ричард Дженкинс, Вернер Херцог, Дэвид Ойелоуо, Роберт Дювалл, Джай Кортни, Владимир Сизов, Джозеф Сикора, Майкл Рэймонд-Джеймс, Алексия Фаст, Джош Хелман, Джеймс Мартин Келли, Дилан Кассман, Денвер Милорд, Сьюзэн Анджело, Джулия Йоркс, Николь Скотт, Делайла Пикарт, Джо Койл, Алисия Мартон, Питер Гэннон, Дэвид Уэйлен, Тристан Элма


О фильме: Джек Ричер, секретный агент спецслужб, скрывающийся от всех, добровольно возвращается на службу. Его интересует судьба заключенного, совершившего убийство пяти человек. Ричер не верит в виновность этого человека, поскольку и сам участвовал в программе подготовки элитных киллеров специального назначения. Адвокат, занявшийся этим делом, с помощью Ричера узнает, что в этом деле замешаны спецслужбы. Вскоре адвоката похищают, а Ричеру выставляют ультиматум: либо он прекращает расследование, либо адвоката будет убит. Ему не остается ничего иного, кроме как вспомнить все то, чему его учили…






Качество: BDRip (1080p)
Видео: MPEG-4 AVC, 13264 Кбит/с, 1920x816, 23.976 кадр/с
Аудио: Русский (AC3, 6 ch, 640 Кбит/с), (DTS, 6 ch, 1509 Кбит/с)
Размер: 14.04 ГБ
Продолжительность: 02:10:24
Перевод: Дублированный
Субтитры: Русские, украинские

Озвучивание - Дублированное (Лицензия Paramount Pictures)
Сохранены оригинальные чаптеры как на Blu-Ray.


x264
x264 [info]: frame I:1427 Avg QP:15.28 size:210978
x264 [info]: frame P:38648 Avg QP:17.49 size:107188
x264 [info]: frame B:147523 Avg QP:19.34 size: 57791
x264 [info]: consecutive B-frames: 2.3% 3.7% 5.5% 13.3% 10.8% 46.6% 5.1% 4.4% 2.4% 4.3% 1.7%
x264 [info]: mb I I16..4: 40.1% 42.0% 17.9%
x264 [info]: mb P I16..4: 16.8% 20.2% 3.3% P16..4: 22.3% 25.1% 6.5% 0.8% 0.0% skip: 4.9%
x264 [info]: mb B I16..4: 11.9% 2.9% 1.0% B16..8: 31.0% 17.5% 2.9% direct:10.8% skip:22.2% L0:43.5% L1:38.5% BI:18.0%
x264 [info]: 8x8 transform intra:31.5% inter:33.9%
x264 [info]: direct mvs spatial:99.0% temporal:1.0%
x264 [info]: coded y,uvDC,uvAC intra: 96.4% 86.1% 78.4% inter: 37.0% 41.2% 24.1%
x264 [info]: i16 v,h,dc,p: 4% 4% 46% 46%
x264 [info]: i8 v,h,dc,ddl,ddr,vr,hd,vl,hu: 9% 8% 18% 9% 11% 11% 11% 11% 13%
x264 [info]: i4 v,h,dc,ddl,ddr,vr,hd,vl,hu: 11% 9% 32% 7% 8% 8% 8% 7% 11%
x264 [info]: i8c dc,h,v,p: 61% 14% 12% 13%
x264 [info]: Weighted P-Frames: Y:2.1% UV:1.0%
x264 [info]: ref P L0: 43.4% 8.0% 26.4% 11.0% 10.5% 0.7% 0.0%
x264 [info]: ref B L0: 69.3% 21.7% 7.2% 1.8%
x264 [info]: ref B L1: 89.1% 10.9%
x264 [info]: kb/s:13260.27
Инфо-файл
Общее
Уникальный идентификатор : 210268621319312693066536981183295930054 (0x9E30436F41A5B007A748B8D5E8543EC6)
Полное имя : D:ЗагрузкиJack.Reacher.2012.x264.BDRip.(1080p).OlLanDGroup.mkv
Формат : Matroska
Версия формата : Version 4 / Version 2
Размер файла : 14,0 Гбайт
Продолжительность : 2 ч. 10 м.
Общий поток : 15,4 Мбит/сек
Название фильма : Джек Ричер.2012.Rip by: ollan
Дата кодирования : UTC 2020-08-21 14:15:42
Программа кодирования : mkvmerge v6.5.0 ('Isn't she lovely') built on Oct 20 2013 12:50:05
Библиотека кодирования : libebml v1.3.0 + libmatroska v1.4.1
Обложка : Yes
Attachments : Cover - Jack Reacher.png

Видео
Идентификатор : 1
Формат : AVC
Формат/Информация : Advanced Video Codec
Профиль формата : [email protected]
Настройки формата : CABAC / 5 Ref Frames
Параметр CABAC формата : Да
Параметр ReFrames формата : 5 кадров
Идентификатор кодека : V_MPEG4/ISO/AVC
Продолжительность : 2 ч. 10 м.
Битрейт : 13,3 Мбит/сек
Ширина : 1920 пикселей
Высота : 816 пикселей
Соотношение сторон : 2,35:1
Режим частоты кадров : Постоянный
Частота кадров : 23,976 (24000/1001) кадра/сек
Цветовое пространство : YUV
Субдискретизация насыщенности : 4:2:0
Битовая глубина : 8 бит
Тип развёртки : Прогрессивная
Бит/(Пиксели*Кадры) : 0.353
Размер потока : 11,8 Гбайт (84%)
Библиотека кодирования : x264 core 146 r2538 121396c
Настройки программы : cabac=1 / ref=5 / deblock=1:-2:-3 / analyse=0x3:0x133 / me=umh / subme=11 / psy=1 / psy_rd=0.90:0.05 / mixed_ref=1 / me_range=64 / chroma_me=1 / trellis=2 / 8x8dct=1 / cqm=0 / deadzone=21,11 / fast_pskip=0 / chroma_qp_offset=-3 / threads=12 / lookahead_threads=3 / sliced_threads=0 / nr=0 / decimate=0 / interlaced=0 / bluray_compat=0 / constrained_intra=0 / bframes=10 / b_pyramid=2 / b_adapt=2 / b_bias=0 / direct=3 / weightb=1 / open_gop=0 / weightp=2 / keyint=240 / keyint_min=23 / scenecut=40 / intra_refresh=0 / rc_lookahead=40 / rc=2pass / mbtree=0 / bitrate=13264 / ratetol=1.0 / qcomp=0.60 / qpmin=0 / qpmax=69 / qpstep=4 / cplxblur=20.0 / qblur=0.5 / vbv_maxrate=50000 / vbv_bufsize=62500 / nal_hrd=none / filler=0 / ip_ratio=1.40 / pb_ratio=1.30 / aq=1:1.00
Язык : English
Default : Да
Forced : Нет

Аудио #1
Идентификатор : 2
Формат : AC-3
Формат/Информация : Audio Coding 3
Идентификатор кодека : A_AC3
Продолжительность : 2 ч. 10 м.
Вид битрейта : Постоянный
Битрейт : 640 Кбит/сек
Каналы : 6 каналов
Расположение каналов : Front: L C R, Side: L R, LFE
Частота : 48,0 КГц
Частота кадров : 31,250 кадров/сек (1536 SPF)
Битовая глубина : 16 бит
Метод сжатия : С потерями
Размер потока : 597 Мбайт (4%)
Заголовок : Paramount Pictures
Язык : Russian
Service kind : Complete Main
Default : Да
Forced : Нет

Аудио #2
Идентификатор : 3
Формат : DTS
Формат/Информация : Digital Theater Systems
Идентификатор кодека : A_DTS
Продолжительность : 2 ч. 10 м.
Вид битрейта : Постоянный
Битрейт : 1509 Кбит/сек
Каналы : 6 каналов
Расположение каналов : Front: L C R, Side: L R, LFE
Частота : 48,0 КГц
Частота кадров : 93,750 кадра/сек (512 SPF)
Битовая глубина : 24 бит
Метод сжатия : С потерями
Размер потока : 1,37 Гбайт (10%)
Заголовок : Paramount Pictures
Язык : Russian
Default : Нет
Forced : Нет

Текст #1
Идентификатор : 4
Формат : UTF-8
Идентификатор кодека : S_TEXT/UTF8
Идентификатор кодека/Информация : UTF-8 Plain Text
Заголовок : Full
Язык : Russian
Default : Нет
Forced : Нет

Текст #2
Идентификатор : 5
Формат : UTF-8
Идентификатор кодека : S_TEXT/UTF8
Идентификатор кодека/Информация : UTF-8 Plain Text
Заголовок : Full
Язык : Ukrainian
Default : Нет
Forced : Нет

Меню
00:00:00.000 : en:Chapter 01
00:08:21.666 : en:Chapter 02
00:14:19.900 : en:Chapter 03
00:21:51.685 : en:Chapter 04
00:30:02.342 : en:Chapter 05
00:35:46.477 : en:Chapter 06
00:41:22.980 : en:Chapter 07
00:49:08.111 : en:Chapter 08
00:55:36.291 : en:Chapter 09
01:01:44.117 : en:Chapter 10
01:08:11.295 : en:Chapter 11
01:16:56.320 : en:Chapter 12
01:23:51.526 : en:Chapter 13
01:30:20.164 : en:Chapter 14
01:38:01.584 : en:Chapter 15
01:45:08.927 : en:Chapter 16
01:53:39.312 : en:Chapter 17
02:01:50.469 : en:Chapter 18
02:10:24.149 : en:Chapter 19
Скриншоты


Релиз от: Rip by:
 

Вложения

  • 36,1 KB Просмотры: 0
    Личеров 0
    Сидеров 0
    Файлов 1
    Объем 14 GB

Привет!

Мы группа людей которые решили помочь другим в решении их проблем, а так же пользователям с поиском самых свежих и качественных инфопродуктов. За 4 с небольшим месяца мы создали этот форум на который заходят ежедневно тысячи человек и посещаемость постоянно растёт. Мы создали панель лицензирования для защиты PHP скриптов от воровства и SEO панель для мониторинга наших сайтов и выбора верной стратегии их развития. Мы надеемся что то что мы создали пригодится Вам и возможно Вы поможете нам развиваться и совершенствоваться вместе с Вами.

Статистика форума

Темы
406.605
Сообщения
465.028
Пользователи
84.390
Новый пользователь
князь владимир

Приложения форума для iOS и Android


У ркн там нет власти ;)
Приватные разговоры
Помощь Пользователи
    Вы не присоединились ни к одной комнате.