За последнюю неделю опубликовано 73 новых материалов.
Инструкция новичку Путеводитель по форуму Прокси для Telegram Показать подсказки , это бомба!

Скачать Джейсон Х / Jason X (2001) BDRemux 1080p | P, P2, A, L бесплатно через торрент

  • Поучаствуй (в качестве покупателя) в любых пяти совместных покупках (кроме завершённых и "Моментальных") и получи группу "Новичок" навсегда -> ссылка на раздел
  • Получай до 480 рублей за каждого приглашенного пользователя!
    представляем Вам очередное расширение партнерской программы, подробности описаны тут -> ссылка
  • 90% материалов доступно к скачиванию после простой регистрации!
    Если же ты хочешь скачивать материалы без требования оставлять отзывы то получи группу "Новичок", 10 способов повышения описаны тут -> ссылка
  • К сожалению количество битых ссылок растет и мы уже не можем их оперативно восстанавливать поэтому просим помощи у каждого нашего пользователя.
    С сегодняшнего дня, за каждую восстановленную ссылку мы заплатим Вам.
    Подробнее тут -> ссылка
  • Перенесем твои заслуги с другого ресурса!
    Мы понимаем как сложно прокачивать аккаунты на форумах, вроде раскачал аккаунт, а тут появляется ресурс в 100 раз круче но тоже с системой прокачки и снова качать аккаунт...
    Предлагаем вам перенести Ваши заслуги на другом подобном ресурсе к нам.
    Подробности описаны тут -> ссылка
  • Вы можете получать по 2.5% с каждой покупки и продажи на маркете! Подробности в теме Партнёрская программа
Если Вы не хотите скачивать, Вы всегда можетепосмотретьонлайн, просто нажмите кнопку ниже :

Открыть плеер

Torrent_Bot

Торрент-Бот
Бот форума
4 Окт 2016
102
157
20
Информация о фильме
Название: Джейсон Х
Оригинальное название: Jason X
Год выхода: 2001
Жанр: ужасы, фантастика, боевик, триллер
Режиссер: Джеймс Исаак
В ролях: Кэйн Ходдер, Джефф Геддис, Лекса Дойг, Дэвид Кроненберг, Маркус Парило, Джонатан Поттс, Лиза Райдер, Дов Тифенбах, Чак Кэмпбелл, Мелисса Эд

О фильме:
Группа студентов-археологов из новой колонии «Земля-2» прилетает на Старую Землю, давно уже ставшую токсичной пустыней, чтобы исследовать древние останки прошлых цивилизаций. Студенты находят два замороженных криогеном тела, хранящихся около 400 лет в старом исследовательском центре.

Обрадованная своей находкой команда забирает тела с собой. Одно из тел принадлежит серийному убийце Джейсону Вурхису. Студенты не подозревают, с какой смертельной опасностью им предстоит столкнуться, хотя дальнейшее развитие событий не трудно предугадать. Джейсон самостоятельно реанимируется прямо на корабле и, быстро расправившись с небольшим отрядом спецназа, начинает охоту на студентов…


75a75ecacd05f66e62f2c403bb0ca9e8.gif
Страна: США, Канада
Продолжительность: 01:31:42
Перевод: Профессиональный (многоголосый закадровый), профессиональный (двухголосый закадровый), авторский (одноголосый закадровый), любительский (одноголосый закадровый)

Файл
Кодек: x.264
Качество: BDRemux 1080p
Видео: MPEG-4 AVC, 22.2 Mбит/с, 1920x1080, 23.976 fps
Звук:
Аудио 1: Русский, Dolby AC3, 48000 Hz, 2ch, 192 kbps - Многоголосый (НТВ+)
Аудио 2: Русский, Dolby AC3, 48000 Hz, 6ch, 448 kbps - Двухгоголосый (R5 (Владимир Вихров + женский голос))
Аудио 3: Русский, Dolby AC3, 48000 Hz, 6ch, 448 kbps - Одноголосый (Е. Рудой)
Аудио 4: Русский, Dolby AC3, 48000 Hz, 2ch, 192 kbps - Двухгоголосый
Аудио 5: Русский, Dolby AC3, 48000 Hz, 2ch, 192 kbps - Двухгоголосый
Аудио 6: Русский, Dolby AC3, 48000 Hz, 1ch, 192 kbps - Двухгоголосый
Аудио 7: Русский, Dolby AC3, 48000 Hz, 2ch, 192 kbps - Одноголосый (И. Сафронов aka *Jonathan*)
Аудио 8: Украинский, Dolby AC3, 48000 Hz, 2ch, 192 kbps - Многоголосый (Інтер)
Аудио 9: Английский DTS-HD Master Audio 5.1 / 48 kHz / 2449 kbps / 24-bit (DTS Core: 5.1 / 48 kHz / 1509 kbps / 24-bit)
Аудио 10: Английский, Dolby AC3, 48000 Hz, 2ch, 192 kbps - Комментарии

Исходник с зарубежного трекера.
Субтитры: Русские, английские

Семпл

Скриншоты
385857f7fc997ed8528f667b5d9a82f1.pnge0231db6abe65224df7b563b3d08f544.pnga3dc64849e903c9d2e77ab67a80042c5.pngaabe459c5a62a017e4f7128971885c96.png2f8afe961290a6a7dac96ab7e9bc70ce.png452ec0c94efe3cb3568d53cd5c494962.png
MI
General
Unique ID : 215444142305201167740037464151924783371 (0xA2150851F9A1F73E8A25B7B203B9B90B)
Complete name : D:DEMUXDzhejson X.(2001).Bd-remux.mkv
Format : Matroska
Format version : Version 4 / Version 2
File size : 17.6 GiB
Duration : 1h 31mn
Overall bit rate mode : Variable
Overall bit rate : 27.4 Mbps
Encoded date : UTC 2018-03-05 12:22:05
Writing application : mkvmerge v6.1.0 ('Old Devil') built on Mar 2 2013 14:32:37
Writing library : libebml v1.3.0 + libmatroska v1.4.0

Video
ID : 1
Format : AVC
Format/Info : Advanced Video Codec
Format profile : High@L4.1
Format settings, CABAC : Yes
Format settings, ReFrames : 2 frames
Codec ID : V_MPEG4/ISO/AVC
Duration : 1h 31mn
Bit rate mode : Variable
Bit rate : 22.2 Mbps
Width : 1 920 pixels
Height : 1 080 pixels
Display aspect ratio : 16:9
Frame rate : 23.976 fps
Color space : YUV
Chroma subsampling : 4:2:0
Bit depth : 8 bits
Scan type : Progressive
Bits/(Pixel*Frame) : 0.447
Stream size : 14.2 GiB (81%)
Language : English
Default : Yes
Forced : No

Audio #1
ID : 2
Format : AC-3
Format/Info : Audio Coding 3
Mode extension : CM (complete main)
Codec ID : A_AC3
Duration : 1h 31mn
Bit rate mode : Constant
Bit rate : 192 Kbps
Channel(s) : 2 channels
Channel positions : Front: L R
Sampling rate : 48.0 KHz
Bit depth : 16 bits
Compression mode : Lossy
Stream size : 126 MiB (1%)
Title : Многоголосый (НТВ+)
Language : Russian
Default : Yes
Forced : No

Audio #2
ID : 3
Format : AC-3
Format/Info : Audio Coding 3
Mode extension : CM (complete main)
Codec ID : A_AC3
Duration : 1h 31mn
Bit rate mode : Constant
Bit rate : 448 Kbps
Channel(s) : 6 channels
Channel positions : Front: L C R, Side: L R, LFE
Sampling rate : 48.0 KHz
Bit depth : 16 bits
Compression mode : Lossy
Stream size : 294 MiB (2%)
Title : Двухгоголосый (R5 (Владимир Вихров + женский голос))
Language : Russian
Default : No
Forced : No

Audio #3
ID : 4
Format : AC-3
Format/Info : Audio Coding 3
Mode extension : CM (complete main)
Codec ID : A_AC3
Duration : 1h 31mn
Bit rate mode : Constant
Bit rate : 448 Kbps
Channel(s) : 6 channels
Channel positions : Front: L C R, Side: L R, LFE
Sampling rate : 48.0 KHz
Bit depth : 16 bits
Compression mode : Lossy
Stream size : 294 MiB (2%)
Title : Одноголосый (Е. Рудой)
Language : Russian
Default : No
Forced : No

Audio #4
ID : 5
Format : AC-3
Format/Info : Audio Coding 3
Mode extension : CM (complete main)
Codec ID : A_AC3
Duration : 1h 31mn
Bit rate mode : Constant
Bit rate : 192 Kbps
Channel(s) : 2 channels
Channel positions : Front: L R
Sampling rate : 48.0 KHz
Bit depth : 16 bits
Compression mode : Lossy
Stream size : 126 MiB (1%)
Title : Двухголосый
Language : Russian
Default : No
Forced : No

Audio #5
ID : 6
Format : AC-3
Format/Info : Audio Coding 3
Mode extension : CM (complete main)
Codec ID : A_AC3
Duration : 1h 31mn
Bit rate mode : Constant
Bit rate : 192 Kbps
Channel(s) : 2 channels
Channel positions : Front: L R
Sampling rate : 48.0 KHz
Bit depth : 16 bits
Compression mode : Lossy
Stream size : 126 MiB (1%)
Title : Двухголосый
Language : Russian
Default : No
Forced : No

Audio #6
ID : 7
Format : AC-3
Format/Info : Audio Coding 3
Mode extension : CM (complete main)
Codec ID : A_AC3
Duration : 1h 31mn
Bit rate mode : Constant
Bit rate : 192 Kbps
Channel(s) : 1 channel
Channel positions : Front: C
Sampling rate : 48.0 KHz
Bit depth : 16 bits
Compression mode : Lossy
Stream size : 126 MiB (1%)
Title : Двухголосый
Language : Russian
Default : No
Forced : No

Audio #7
ID : 8
Format : AC-3
Format/Info : Audio Coding 3
Mode extension : CM (complete main)
Codec ID : A_AC3
Duration : 1h 31mn
Bit rate mode : Constant
Bit rate : 192 Kbps
Channel(s) : 2 channels
Channel positions : Front: L R
Sampling rate : 48.0 KHz
Bit depth : 16 bits
Compression mode : Lossy
Stream size : 126 MiB (1%)
Title : Одноголосый (И. Сафронов aka Jonathan)
Language : Russian
Default : No
Forced : No

Audio #8
ID : 9
Format : AC-3
Format/Info : Audio Coding 3
Mode extension : CM (complete main)
Codec ID : A_AC3
Duration : 1h 31mn
Bit rate mode : Constant
Bit rate : 192 Kbps
Channel(s) : 2 channels
Channel positions : Front: L R
Sampling rate : 48.0 KHz
Bit depth : 16 bits
Compression mode : Lossy
Stream size : 126 MiB (1%)
Language : Ukrainian
Default : No
Forced : No

Audio #9
ID : 10
Format : DTS
Format/Info : Digital Theater Systems
Format profile : MA / Core
Codec ID : A_DTS
Duration : 1h 31mn
Bit rate mode : Variable
Bit rate : 2 434 Kbps / 1 510 Kbps
Channel(s) : 6 channels
Channel positions : Front: L C R, Side: L R, LFE
Sampling rate : 48.0 KHz
Bit depth : 24 bits
Compression mode : Lossless / Lossy
Language : English
Default : No
Forced : No

Audio #10
ID : 11
Format : AC-3
Format/Info : Audio Coding 3
Format profile : Dolby Digital
Mode extension : CM (complete main)
Codec ID : A_AC3
Duration : 1h 31mn
Bit rate mode : Constant
Bit rate : 192 Kbps
Channel(s) : 2 channels
Channel positions : Front: L R
Sampling rate : 48.0 KHz
Bit depth : 16 bits
Compression mode : Lossy
Stream size : 126 MiB (1%)
Title : Комментарии
Language : English
Default : No
Forced : No

Text #1
ID : 12
Format : UTF-8
Codec ID : S_TEXT/UTF8
Codec ID/Info : UTF-8 Plain Text
Language : Russian
Default : No
Forced : No

Text #2
ID : 13
Format : UTF-8
Codec ID : S_TEXT/UTF8
Codec ID/Info : UTF-8 Plain Text
Language : English
Default : No
Forced : No

Menu
00:00:00.000 : en:Main Title / Evil Eye
00:03:04.810 : en:A Calculated Flight Risk
00:07:10.555 : en:"Cryogenic Breach"
00:09:38.578 : en:"Museum-Quality Finds"
00:14:00.840 : en:Bodies in Space
00:17:34.470 : en:Resuscitation
00:23:24.445 : en:"It's Old News"
00:25:58.807 : en:Real-Unreal; Dead-Undead
00:29:56.336 : en:Jason's Awakening
00:31:10.869 : en:All About Money
00:34:49.296 : en:Game Virtually Over
00:38:52.914 : en:Special Forces
00:41:17.600 : en:And Then There Was One
00:49:58.662 : en:Crashing Through Solaris
00:54:05.868 : en:Run for the Shuttle
00:58:49.985 : en:Rowan's Rescue Mission
01:03:11.997 : en:The Shuttle Disaster
01:04:47.926 : en:The Monster and the Android
01:08:50.668 : en:Thirty Minutes to Implosion
01:11:56.687 : en:New and Improved Menace
01:15:13.217 : en:"This Sucks on So Many Levels"
01:18:27.912 : en:Emergency Space Walk
01:21:04.068 : en:The Virtual 80's
01:23:46.271 : en:Last One Through the Hatch
01:26:24.513 : en:Wish Upon a Death Star
01:27:27.325 : en:End Credits
 

Вложения

Привет!

Мы группа людей которые решили помочь другим в решении их проблем, а так же пользователям с поиском самых свежих и качественных инфопродуктов. За 4 с небольшим месяца мы создали этот форум на который заходят ежедневно тысячи человек и посещаемость постоянно растёт. Мы создали панель лицензирования для защиты PHP скриптов от воровства и SEO панель для мониторинга наших сайтов и выбора верной стратегии их развития. Мы надеемся что то что мы создали пригодится Вам и возможно Вы поможете нам развиваться и совершенствоваться вместе с Вами.

Статистика форума

Темы
405.461
Сообщения
462.505
Пользователи
80.572
Новый пользователь
Kutsenko

Приложения форума для iOS и Android


У ркн там нет власти ;)
Приватные разговоры
Помощь Пользователи
    Вы не присоединились ни к одной комнате.