За последнюю неделю опубликовано 63 новых материалов.
Инструкция новичку Путеводитель по форуму Прокси для Telegram Показать подсказки , это бомба!

Скачать Джейсон отправляется в ад: Последняя пятница / Jason Goes to Hell: The Final Friday (1993) BDRemux 1080p | P2, A бесплатно через торрент

  • Поучаствуй (в качестве покупателя) в любых пяти совместных покупках (кроме завершённых и "Моментальных") и получи группу "Новичок" навсегда -> ссылка на раздел
  • Получай до 480 рублей за каждого приглашенного пользователя!
    представляем Вам очередное расширение партнерской программы, подробности описаны тут -> ссылка
  • 90% материалов доступно к скачиванию после простой регистрации!
    Если же ты хочешь скачивать материалы без требования оставлять отзывы то получи группу "Новичок", 10 способов повышения описаны тут -> ссылка
  • К сожалению количество битых ссылок растет и мы уже не можем их оперативно восстанавливать поэтому просим помощи у каждого нашего пользователя.
    С сегодняшнего дня, за каждую восстановленную ссылку мы заплатим Вам.
    Подробнее тут -> ссылка
  • Перенесем твои заслуги с другого ресурса!
    Мы понимаем как сложно прокачивать аккаунты на форумах, вроде раскачал аккаунт, а тут появляется ресурс в 100 раз круче но тоже с системой прокачки и снова качать аккаунт...
    Предлагаем вам перенести Ваши заслуги на другом подобном ресурсе к нам.
    Подробности описаны тут -> ссылка
  • Вы можете получать по 2.5% с каждой покупки и продажи на маркете! Подробности в теме Партнёрская программа
Если Вы не хотите скачивать, Вы всегда можетепосмотретьонлайн, просто нажмите кнопку ниже :

Открыть плеер

Torrent_Bot

Торрент-Бот
Бот форума
4 Окт 2016
82
186
20
Информация о фильме
Название: Джейсон отправляется в ад: Последняя пятница
Оригинальное название: Jason Goes to Hell: The Final Friday
Год выхода: 1993
Жанр: ужасы, фэнтези, триллер
Режиссер: Адам Маркус
В ролях: Джон Д. Лемэй, Кари Кигэн, Кэйн Ходдер, Стивен Уильямс, Стивен Калп, Эрин Грэй, Расти Швиммер, Ричард Гант, Лесли Джордан, Билли Грин Буш

О фильме:
Попавший в ловушку, устроенную ФБР и взорванный бомбой, Джейсон возвращается к жизни в теле чернокожего патологоанатома, делавшего вскрытие обгоревшего трупа маньяка. Начинаются немотивированные и беспричинные убийства невинных людей перемещающегося из тела в тело Джейсона.

Общественность предлагает охотнику за маньяками Крейтону Дьюку пятьсот тысяч долларов за то, чтобы тот уничтожил Джейсона. Стивен Фриман, живущий поблизости от Кристального озера, догадывается, что Джейсон ищет оставшихся в живых членов своей семьи, чтобы войти в «родное» тело. Он пытается защитить свою подругу Джессику, которая является единственным потомком семейки Вурхисов…



Страна: США, Канада
Продолжительность: 01:27:44
Перевод: Профессиональный (двухголосый закадровый), авторский (одноголосый закадровый)

Файл
Кодек: x.264
Качество: BDRemux 1080p
Видео: MPEG-4 AVC, 23.4 Mбит/с, 1920x1080, 23.976 fps
Звук:
Аудио 1: Русский Dolby AC3, 48000Hz, 2ch, 192kbps - Двухгоголосый (НТВ+)
Аудио 2: Русский Dolby AC3, 48000Hz, 6ch, 448kbps - Одноголосый (Ю. Живов)
Аудио 3: Русский Dolby AC3, 48000Hz, 2ch, 192kbps - Одноголосый (В. Горчаков)
Аудио 4: Русский Dolby AC3, 48000Hz, 2ch, 192kbps - Одноголосый (А. Алексеев)
Аудио 5: Русский Dolby AC3, 48000Hz, 2ch, 192kbps - Одноголосый (А. Дольский)
Аудио 6: Русский Dolby AC3, 48000Hz, 2ch, 192kbps - Одноголосый (М. Иванов)
Аудио 7: Русский Dolby AC3, 48000Hz, 2ch, 192kbps - Одноголосый (П. Санаев)
Аудио 8: Английский DTS-HD Master Audio 5.1 / 48 kHz / 3022 kbps / 24-bit (DTS Core: 5.1 / 48 kHz / 1509 kbps / 24-bit)

Исходник с зарубежного трекера.
Субтитры: Русские, английские

Семпл

Скриншоты
MI
General
Unique ID : 231742074292103765365615651681891183670 (0xAE57E6680FD3A3D1AF19E7983132EC36)
Complete name : D:DEMUXDzhejson.otpravlyaetsya.v.ad.(1993).Bd-remux.mkv
Format : Matroska
Format version : Version 4 / Version 2
File size : 17.5 GiB
Duration : 1h 27mn
Overall bit rate mode : Variable
Overall bit rate : 28.6 Mbps
Encoded date : UTC 2018-03-05 11:32:14
Writing application : mkvmerge v6.1.0 ('Old Devil') built on Mar 2 2013 14:32:37
Writing library : libebml v1.3.0 + libmatroska v1.4.0

Video
ID : 1
Format : AVC
Format/Info : Advanced Video Codec
Format profile : [email protected]
Format settings, CABAC : Yes
Format settings, ReFrames : 2 frames
Format settings, GOP : M=1, N=10
Codec ID : V_MPEG4/ISO/AVC
Duration : 1h 27mn
Bit rate mode : Variable
Bit rate : 23.4 Mbps
Width : 1 920 pixels
Height : 1 080 pixels
Display aspect ratio : 16:9
Frame rate : 23.976 fps
Color space : YUV
Chroma subsampling : 4:2:0
Bit depth : 8 bits
Scan type : Progressive
Bits/(Pixel*Frame) : 0.470
Stream size : 14.3 GiB (82%)
Language : English
Default : Yes
Forced : No

Audio #1
ID : 2
Format : AC-3
Format/Info : Audio Coding 3
Mode extension : CM (complete main)
Codec ID : A_AC3
Duration : 1h 27mn
Bit rate mode : Constant
Bit rate : 192 Kbps
Channel(s) : 2 channels
Channel positions : Front: L R
Sampling rate : 48.0 KHz
Bit depth : 16 bits
Compression mode : Lossy
Stream size : 121 MiB (1%)
Title : Двухгоголосый (НТВ+)
Language : Russian
Default : Yes
Forced : No

Audio #2
ID : 3
Format : AC-3
Format/Info : Audio Coding 3
Mode extension : CM (complete main)
Codec ID : A_AC3
Duration : 1h 27mn
Bit rate mode : Constant
Bit rate : 448 Kbps
Channel(s) : 6 channels
Channel positions : Front: L C R, Side: L R, LFE
Sampling rate : 48.0 KHz
Bit depth : 16 bits
Compression mode : Lossy
Stream size : 281 MiB (2%)
Title : Одноголосый (Ю. Живов)
Language : Russian
Default : No
Forced : No

Audio #3
ID : 4
Format : AC-3
Format/Info : Audio Coding 3
Mode extension : CM (complete main)
Codec ID : A_AC3
Duration : 1h 27mn
Bit rate mode : Constant
Bit rate : 192 Kbps
Channel(s) : 2 channels
Channel positions : Front: L R
Sampling rate : 48.0 KHz
Bit depth : 16 bits
Compression mode : Lossy
Stream size : 121 MiB (1%)
Title : Одноголосый (В. Горчаков)
Language : Russian
Default : No
Forced : No

Audio #4
ID : 5
Format : AC-3
Format/Info : Audio Coding 3
Mode extension : CM (complete main)
Codec ID : A_AC3
Duration : 1h 27mn
Bit rate mode : Constant
Bit rate : 192 Kbps
Channel(s) : 2 channels
Channel positions : Front: L R
Sampling rate : 48.0 KHz
Bit depth : 16 bits
Compression mode : Lossy
Stream size : 121 MiB (1%)
Title : Одноголосый (А. Алексеев)
Language : Russian
Default : No
Forced : No

Audio #5
ID : 6
Format : AC-3
Format/Info : Audio Coding 3
Mode extension : CM (complete main)
Codec ID : A_AC3
Duration : 1h 27mn
Bit rate mode : Constant
Bit rate : 192 Kbps
Channel(s) : 2 channels
Channel positions : Front: L R
Sampling rate : 48.0 KHz
Bit depth : 16 bits
Compression mode : Lossy
Stream size : 121 MiB (1%)
Title : Одноголосый (А. Дольский)
Language : Russian
Default : No
Forced : No

Audio #6
ID : 7
Format : AC-3
Format/Info : Audio Coding 3
Mode extension : CM (complete main)
Codec ID : A_AC3
Duration : 1h 27mn
Bit rate mode : Constant
Bit rate : 192 Kbps
Channel(s) : 2 channels
Channel positions : Front: L R
Sampling rate : 48.0 KHz
Bit depth : 16 bits
Compression mode : Lossy
Stream size : 121 MiB (1%)
Title : Одноголосый (М. Иванов)
Language : Russian
Default : No
Forced : No

Audio #7
ID : 8
Format : AC-3
Format/Info : Audio Coding 3
Mode extension : CM (complete main)
Codec ID : A_AC3
Duration : 1h 27mn
Bit rate mode : Constant
Bit rate : 192 Kbps
Channel(s) : 2 channels
Channel positions : Front: L R
Sampling rate : 48.0 KHz
Bit depth : 16 bits
Compression mode : Lossy
Stream size : 121 MiB (1%)
Title : Одноголосый (П. Санаев)
Language : Russian
Default : No
Forced : No

Audio #8
ID : 9
Format : DTS
Format/Info : Digital Theater Systems
Format profile : MA / Core
Codec ID : A_DTS
Duration : 1h 27mn
Bit rate mode : Variable
Bit rate : 3 037 Kbps / 1 510 Kbps
Channel(s) : 6 channels
Channel positions : Front: L C R, Side: L R, LFE
Sampling rate : 48.0 KHz
Bit depth : 24 bits
Compression mode : Lossless / Lossy
Language : English
Default : No
Forced : No

Text #1
ID : 10
Format : UTF-8
Codec ID : S_TEXT/UTF8
Codec ID/Info : UTF-8 Plain Text
Language : Russian
Default : No
Forced : No

Text #2
ID : 11
Format : UTF-8
Codec ID : S_TEXT/UTF8
Codec ID/Info : UTF-8 Plain Text
Language : English
Default : No
Forced : No

Menu
00:00:00.000 : en:Night Light
00:03:29.000 : en:The Naked and the Dead
00:07:52.472 : en:Main Titles/Autopsy
00:12:40.051 : en:Heart Transplant
00:16:30.740 : en:Newsflash/"For All Time"
00:20:17.925 : en:The Price of a Jason Burger
00:23:48.385 : en:Happy Hitchhikers
00:26:19.787 : en:Sex and Death on Crystal Lake
00:31:30.472 : en:Late-Night Date
00:35:45.143 : en:Strange Possessed Cop
00:40:50.365 : en:The Girl's Mother's Murder
00:44:13.401 : en:The High Price of Information
00:49:07.153 : en:Steven's Escape
00:52:55.130 : en:The Voorhees House
00:58:22.290 : en:Saving Jessica
01:03:07.617 : en:Mayhem at the Station
01:07:02.977 : en:Dying at the Diner
01:11:38.044 : en:"...It Will Never Be Over"
01:14:56.367 : en:Rebirth of a Monster
01:23:20.787 : en:The Living and the Undead/Credits
 

Вложения

  • 88,5 KB Просмотры: 1
    Личеров 0
    Сидеров 0
    Файлов 1
    Объем 17,5 GB

Привет!

Мы группа людей которые решили помочь другим в решении их проблем, а так же пользователям с поиском самых свежих и качественных инфопродуктов. За 4 с небольшим месяца мы создали этот форум на который заходят ежедневно тысячи человек и посещаемость постоянно растёт. Мы создали панель лицензирования для защиты PHP скриптов от воровства и SEO панель для мониторинга наших сайтов и выбора верной стратегии их развития. Мы надеемся что то что мы создали пригодится Вам и возможно Вы поможете нам развиваться и совершенствоваться вместе с Вами.

Статистика форума

Темы
412.156
Сообщения
471.195
Пользователи
91.620
Новый пользователь
dimasel

Приложения форума для iOS и Android


У ркн там нет власти ;)
Приватные разговоры
Помощь Пользователи
    Вы не присоединились ни к одной комнате.