За последнюю неделю опубликовано 180 новых материалов.
Инструкция новичку Путеводитель по форуму Прокси для Telegram Показать подсказки , это бомба!

Скачать Дыра / Nozoki Ana [OVA] [1 из 1] (2013) BDRip от Deadmauvlad | L | Sexy Extended Edition бесплатно через торрент

  • Поучаствуй (в качестве покупателя) в любых пяти совместных покупках (кроме завершённых и "Моментальных") и получи группу "Новичок" навсегда -> ссылка на раздел
  • Получай до 480 рублей за каждого приглашенного пользователя!
    представляем Вам очередное расширение партнерской программы, подробности описаны тут -> ссылка
  • 90% материалов доступно к скачиванию после простой регистрации!
    Если же ты хочешь скачивать материалы без требования оставлять отзывы то получи группу "Новичок", 10 способов повышения описаны тут -> ссылка
  • К сожалению количество битых ссылок растет и мы уже не можем их оперативно восстанавливать поэтому просим помощи у каждого нашего пользователя.
    С сегодняшнего дня, за каждую восстановленную ссылку мы заплатим Вам.
    Подробнее тут -> ссылка
  • Перенесем твои заслуги с другого ресурса!
    Мы понимаем как сложно прокачивать аккаунты на форумах, вроде раскачал аккаунт, а тут появляется ресурс в 100 раз круче но тоже с системой прокачки и снова качать аккаунт...
    Предлагаем вам перенести Ваши заслуги на другом подобном ресурсе к нам.
    Подробности описаны тут -> ссылка
  • Вы можете получать по 2.5% с каждой покупки и продажи на маркете! Подробности в теме Партнёрская программа

Torrent_Bot

Торрент-Бот
Бот форума
4 Окт 2016
124
94
20


Информация о фильме
Название: Щель
Оригинальное название: Nozoki Ana
Страна: Япония
Год выхода: 2010
Жанр: Эротика, романтика, этти
Тип: OVA
Продолжительность: 0:55:59
Режиссер: Нисидзима Кацухико
Студия: Studio Fantasia


Перевод: Любительское многоголосое закадровое Nutbar, Mosa, Акварелька (AniFilm)

О фильме:
Кидо Тацухико переехал в Токио, дабы начать новую, самостоятельную жизнь студента Технической Школы. У Кидо есть талант к рисованию, но он не стремится стать великим художником. Он просто жаждет вкусить взрослой жизни в максимальной удаленности от родительского очага. В своей небольшой, съемной квартирке Кидо находит загадочное отверстие в стене, в котором можно было видеть комнату девушки по соседству. В попытках предупредить соседку о строительном недочете, способном поставить крест на интимной жизни обоих, Кидо отправляется к ней для серьезного разговора о косметическом ремонте стены. Серьезного разговора не получилось, так как Икуно Эмиру (именно так звали очаровательную красотку) была прекрасно осведомлена о дыре и открыто предложила главному герою взаимное подглядывание друг за другом. Ошалев от натиска юной вуайеристки, которая умело шантажировала его двухсмыленными снимками, Кидо вынужден был пойти у нее на поводу. С этого дня Кидо Тацухико начинает постигать все тонкости и прелести вуайеризма…




Возрастное ограничение: Запрещено для детей
Цензура: Нет (см.скриншоты)

Файл
Качество: BDRip [За Исходный Blu-Ray Disk спасибо Mayson_Wings]
Формат видео / Кодек: AVI / XviD
Видео: 720x400 (16:9), 23.976 fps, 1339 Кбит/сек (0.194 bit/pixel)
Аудио №1: AC-3, 48,0 КГц, 2 ch, 192 Кбит/сек, CBR | | AniFilm
Аудио №2: AC-3, 48,0 КГц, 2 ch, 192 /сек, CBR | | Japan (Оригинал)
Русские Субтитры: Есть (Полный Перевод)


MediaInfo
Общее
Полное имя : D:Аниме[Deadmau-RAWS] Nozoki.Ana.OVA.BDRip.RUS.JAP.Uncensored.Sexy.Version.Deadmauvlad.700.MB.avi
Формат : AVI
Формат/Информация : Audio Video Interleave
Размер файла : 696 Мбайт
Продолжительность : 55 м. 59 с.
Общий поток : 1737 Кбит/сек
Название фильма : [Deadmau-RAWS] Nozoki.Ana.OVA.BDRip.RUS.JAP.Uncensored.Sexy.Version.Deadmauvlad.700.MB
Режиссёр : Encoder By Deadmauvlad
Жанр : Эротика, Романтика, Этти
Программа кодирования : VirtualDubMod 1.5.10.3 | www.virtualdub-fr.org || (build 2550/release)
Формат оригинала/Имя : Аниме
Авторское право : Encoder By Deadmauvlad
Примечание : Encoder By Deadmauvlad

Видео
Идентификатор : 0
Формат : MPEG-4 Visual
Профиль формата : Advanced Simple@L5
Настройки формата : BVOP1 / Custom Matrix
Параметр BVOP формата : 1
Параметр QPel формата : Нет
Параметр GMC формата : Без точки перехода
Параметр матрицы формата : Выборочная
Идентификатор кодека : XVID
Идентификатор кодека/Подсказка : XviD
Продолжительность : 55 м. 59 с.
Битрейт : 1339 Кбит/сек
Ширина : 720 пикселей
Высота : 400 пикселей
Соотношение сторон : 16:9
Частота кадров : 23,976 (24000/1001) кадра/сек
Цветовое пространство : YUV
Субдискретизация насыщенности : 4:2:0
Битовая глубина : 8 бит
Тип развёртки : Прогрессивная
Метод сжатия : С потерями
Бит/(Пиксели*Кадры) : 0.194
Размер потока : 536 Мбайт (77%)
Библиотека кодирования : XviD 73

Аудио #1
Идентификатор : 1
Формат : AC-3
Формат/Информация : Audio Coding 3
Коммерческое название : Dolby Digital
Идентификатор кодека : 2000
Продолжительность : 55 м. 59 с.
Вид битрейта : Постоянный
Битрейт : 192 Кбит/сек
Каналы : 2 канала
Channel layout : L R
Частота : 48,0 КГц
Частота кадров : 31,250 кадров/сек (1536 SPF)
Битовая глубина : 16 бит
Метод сжатия : С потерями
Размер потока : 76,9 Мбайт (11%)
Выравнивание : Разделение по промежуткам
Продолжительность промежутка : 42 мс. (1,00 видеокадр)
Время предзагрузки промежутка : 500 мс.


Аудио #2
Идентификатор : 2
Формат : AC-3
Формат/Информация : Audio Coding 3
Коммерческое название : Dolby Digital
Идентификатор кодека : 2000
Продолжительность : 55 м. 59 с.
Вид битрейта : Постоянный
Битрейт : 192 Кбит/сек
Каналы : 2 канала
Channel layout : L R
Частота : 48,0 КГц
Частота кадров : 31,250 кадров/сек (1536 SPF)
Битовая глубина : 16 бит
Метод сжатия : С потерями
Размер потока : 76,9 Мбайт (11%)
Выравнивание : Разделение по промежуткам
Продолжительность промежутка : 42 мс. (1,00 видеокадр)
Время предзагрузки промежутка : 500 мс.
Скриншоты

Резервные


ЦитатаКто-то писал:
1. Экранизация ограниченно охватывает события 1-21 глав манги-первоисточника.
2. ОВА-шка кишит похотью и развратом чуть более, чем на половину. Не переходя, впрочем, хентайной грани.
3. Sexy Extended Edition - вышедшая на BD версия, длиннее первичной DVD версии на чуть более, чем 13 минут.

Релиз / Автор рипа: >Deadmauvlad <


 

Вложения

  • 2 KB Просмотры: 0
    Личеров 0
    Сидеров 0
    Файлов 2
    Объем 695,7 MB
Ваш e-mail не будет опубликован. Он потребуется для подтверждения Вашего поста.
Оформление текста Нажмите «Ввод», чтобы отправить ответ.

Привет!

Мы группа людей которые решили помочь другим в решении их проблем, а так же пользователям с поиском самых свежих и качественных инфопродуктов. За 4 с небольшим месяца мы создали этот форум на который заходят ежедневно тысячи человек и посещаемость постоянно растёт. Мы создали панель лицензирования для защиты PHP скриптов от воровства и SEO панель для мониторинга наших сайтов и выбора верной стратегии их развития. Мы надеемся что то что мы создали пригодится Вам и возможно Вы поможете нам развиваться и совершенствоваться вместе с Вами.

Статистика форума

Темы
378.726
Сообщения
417.968
Пользователи
49.550
Новый пользователь
Rusifikus

Приложения форума для iOS и Android


У ркн там нет власти ;)
Приватные разговоры
Помощь Пользователи
    Вы не присоединились ни к одной комнате.