За последнюю неделю опубликовано 59 новых материалов.
Инструкция новичку Путеводитель по форуму Прокси для Telegram Показать подсказки , это бомба!

Скачать Дылда / She's Too Tall (1999) DVDRip-AVC | P2 бесплатно через торрент

  • Поучаствуй (в качестве покупателя) в любых пяти совместных покупках (кроме завершённых и "Моментальных") и получи группу "Новичок" навсегда -> ссылка на раздел
  • Получай до 480 рублей за каждого приглашенного пользователя!
    представляем Вам очередное расширение партнерской программы, подробности описаны тут -> ссылка
  • 90% материалов доступно к скачиванию после простой регистрации!
    Если же ты хочешь скачивать материалы без требования оставлять отзывы то получи группу "Новичок", 10 способов повышения описаны тут -> ссылка
  • К сожалению количество битых ссылок растет и мы уже не можем их оперативно восстанавливать поэтому просим помощи у каждого нашего пользователя.
    С сегодняшнего дня, за каждую восстановленную ссылку мы заплатим Вам.
    Подробнее тут -> ссылка
  • Перенесем твои заслуги с другого ресурса!
    Мы понимаем как сложно прокачивать аккаунты на форумах, вроде раскачал аккаунт, а тут появляется ресурс в 100 раз круче но тоже с системой прокачки и снова качать аккаунт...
    Предлагаем вам перенести Ваши заслуги на другом подобном ресурсе к нам.
    Подробности описаны тут -> ссылка
  • Вы можете получать по 2.5% с каждой покупки и продажи на маркете! Подробности в теме Партнёрская программа
Если Вы не хотите скачивать, Вы всегда можетепосмотретьонлайн, просто нажмите кнопку ниже :

Открыть плеер

Torrent_Bot

Торрент-Бот
Бот форума
4 Окт 2016
92
163
20

Название: Дылда
Оригинальное название: She's Too Tall
Год выхода: 1999

Страна: США
Студия: Cinequanon Pictures International Inc.
Продолжительность: 01:32:02
Жанр: комедия

Режиссер: Редж Махаффей
В ролях: Бриджит Нильсен, Кори Фельдман, Джордж Хэмилтон, Тревор Годдард, Роберт Миано, Джордж Элиа, Вероника Бёрд, Валери Валуа, Элизабет Нун, Эмма Данофф, ...

Перевод:
- Профессиональный (двухголосый, закадровый) R5 от «Videogram»
- Субтитры

О фильме: Она богата и знаменита. По мановению ее руки свершаются самые дерзновенные проекты. Ведь Ви — дизайнер модной одежды. Денег — куры не клюют. Полезных знакомств — хоть залейся. Друзей — каждый первый.
Но только до тех пор, пока у нее все получается. Предприятию сногсшибательной блондинки грозит кризис. Даже не кризис, а крах. И помочь ей может только один человек — забавный коротышка Даг Бекуит…



Кодек: x264
Качество: DVDRip-AVC
Видео: 748x572, 3000 kbps, 25 fps
Аудио #1: AC-3, 6 ch, 384 kbps (Rus) - DVO R5 «Videogram»
Аудио #2: AC-3, 6 ch, 384 kbps (Eng)
Субтитры: русские

Дополнительная информация
За исходник спасибо - bsv74m
MediaInfo
x264 [info]: frame I:913 Avg QP:18.45 size: 70878
x264 [info]: frame P:26168 Avg QP:21.12 size: 30638
x264 [info]: frame B:110970 Avg QP:23.36 size: 10847
x264 [info]: consecutive B-frames: 0.9% 0.7% 3.8% 17.0% 18.4% 38.9% 15.4% 2.0% 1.1% 1.3% 0.2% 0.1% 0.2%

Общее
Уникальный идентификатор : 240082251959951933725283600077877059574 (0xB49E28E9BCEF5E9EAE20817D06769FF6)
Полное имя : Дылда (She's too Tall) 1999 DVDRip.mkv
Формат : Matroska
Версия формата : Version 2
Размер файла : 2,42 Гбайт
Продолжительность : 1 ч. 32 м.
Общий поток : 3769 Кбит/сек
Дата кодирования : UTC 2020-06-09 05:46:49
Программа кодирования : mkvmerge v4.0.0 ('The Stars were mine') сборка от Jun 6 2010 16:18:42
Библиотека кодирования : libebml v1.0.0 + libmatroska v1.0.0

Видео
Идентификатор : 1
Формат : AVC
Формат/Информация : Advanced Video Codec
Профиль формата : [email protected]
Параметр CABAC формата : Да
Параметр ReFrames формата : 12 кадров
Идентификатор кодека : V_MPEG4/ISO/AVC
Продолжительность : 1 ч. 32 м.
Битрейт : 3000 Кбит/сек
Ширина : 748 пикселей
Высота : 572 пикселя
Соотношение сторон : 4:3
Режим частоты кадров : Постоянный
Частота кадров : 25,000 кадров/сек
Цветовое пространство : YUV
Субдискретизация насыщенности : 4:2:0
Битовая глубина : 8 бит
Тип развёртки : Прогрессивная
Бит/(Пиксели*Кадры) : 0.280
Размер потока : 1,88 Гбайт (78%)
Библиотека кодирования : x264 core 146 r2538 121396c
Настройки программы : cabac=1 / ref=12 / deblock=1:-1:-1 / analyse=0x3:0x133 / me=umh / subme=11 / psy=1 / psy_rd=1.00:0.00 / mixed_ref=1 / me_range=32 / chroma_me=1 / trellis=2 / 8x8dct=1 / cqm=0 / deadzone=21,11 / fast_pskip=0 / chroma_qp_offset=-2 / threads=12 / lookahead_threads=2 / sliced_threads=0 / nr=0 / decimate=0 / interlaced=0 / bluray_compat=0 / constrained_intra=0 / bframes=12 / b_pyramid=2 / b_adapt=2 / b_bias=0 / direct=3 / weightb=1 / open_gop=0 / weightp=2 / keyint=250 / keyint_min=25 / scenecut=40 / intra_refresh=0 / rc=2pass / mbtree=0 / bitrate=3000 / ratetol=1.0 / qcomp=0.60 / qpmin=0 / qpmax=69 / qpstep=4 / cplxblur=20.0 / qblur=0.5 / ip_ratio=1.40 / pb_ratio=1.30 / aq=3:0.80
Язык : English
Default : Нет
Forced : Нет

Аудио #1
Идентификатор : 2
Формат : AC-3
Формат/Информация : Audio Coding 3
Расширение режима : CM (complete main)
Параметр Endianness формата : Big
Идентификатор кодека : A_AC3
Продолжительность : 1 ч. 32 м.
Вид битрейта : Постоянный
Битрейт : 384 Кбит/сек
Каналы : 6 каналов
Расположение каналов : Front: L C R, Side: L R, LFE
Частота : 48,0 КГц
Частота кадров : 31,250 кадров/сек (1536 spf)
Метод сжатия : С потерями
Размер потока : 253 Мбайт (10%)
Заголовок : DVO R5 «Videogram»
Язык : Russian
Default : Нет
Forced : Нет

Аудио #2
Идентификатор : 3
Формат : AC-3
Формат/Информация : Audio Coding 3
Расширение режима : CM (complete main)
Параметр Endianness формата : Big
Идентификатор кодека : A_AC3
Продолжительность : 1 ч. 32 м.
Вид битрейта : Постоянный
Битрейт : 384 Кбит/сек
Каналы : 6 каналов
Расположение каналов : Front: L C R, Side: L R, LFE
Частота : 48,0 КГц
Частота кадров : 31,250 кадров/сек (1536 spf)
Метод сжатия : С потерями
Размер потока : 253 Мбайт (10%)
Язык : English
Default : Нет
Forced : Нет

Текст
Идентификатор : 4
Формат : UTF-8
Идентификатор кодека : S_TEXT/UTF8
Идентификатор кодека/Информация : UTF-8 Plain Text
Язык : Russian
Default : Нет
Forced : Нет

Меню
00:00:00.000 : en:Chapter 01
00:01:48.680 : en:Chapter 02
00:07:51.640 : en:Chapter 03
00:09:48.120 : en:Chapter 04
00:15:08.440 : en:Chapter 05
00:19:53.920 : en:Chapter 06
00:23:05.800 : en:Chapter 07
00:30:02.840 : en:Chapter 08
00:39:43.680 : en:Chapter 09
00:44:33.840 : en:Chapter 10
00:59:38.640 : en:Chapter 11
01:03:28.480 : en:Chapter 12
01:12:56.320 : en:Chapter 13
01:18:03.640 : en:Chapter 14
01:25:43.840 : en:Chapter 15
01:28:38.560 : en:Chapter 16

 

Вложения

  • 13 KB Просмотры: 0
    Личеров 0
    Сидеров 0
    Файлов 1
    Объем 2,4 GB

Привет!

Мы группа людей которые решили помочь другим в решении их проблем, а так же пользователям с поиском самых свежих и качественных инфопродуктов. За 4 с небольшим месяца мы создали этот форум на который заходят ежедневно тысячи человек и посещаемость постоянно растёт. Мы создали панель лицензирования для защиты PHP скриптов от воровства и SEO панель для мониторинга наших сайтов и выбора верной стратегии их развития. Мы надеемся что то что мы создали пригодится Вам и возможно Вы поможете нам развиваться и совершенствоваться вместе с Вами.

Статистика форума

Темы
406.678
Сообщения
465.125
Пользователи
84.737
Новый пользователь
Mo0dak

Приложения форума для iOS и Android


У ркн там нет власти ;)
Приватные разговоры
Помощь Пользователи
    Вы не присоединились ни к одной комнате.