За последнюю неделю опубликовано 57 новых материалов.
Инструкция новичку Путеводитель по форуму Прокси для Telegram Показать подсказки , это бомба!

Скачать Двойной КОПец / Cop Out (2010) WEB-DLRip 720p от SuperMin | D | Open Matte бесплатно через торрент

  • Поучаствуй (в качестве покупателя) в любых пяти совместных покупках (кроме завершённых и "Моментальных") и получи группу "Новичок" навсегда -> ссылка на раздел
  • Получай до 480 рублей за каждого приглашенного пользователя!
    представляем Вам очередное расширение партнерской программы, подробности описаны тут -> ссылка
  • 90% материалов доступно к скачиванию после простой регистрации!
    Если же ты хочешь скачивать материалы без требования оставлять отзывы то получи группу "Новичок", 10 способов повышения описаны тут -> ссылка
  • К сожалению количество битых ссылок растет и мы уже не можем их оперативно восстанавливать поэтому просим помощи у каждого нашего пользователя.
    С сегодняшнего дня, за каждую восстановленную ссылку мы заплатим Вам.
    Подробнее тут -> ссылка
  • Перенесем твои заслуги с другого ресурса!
    Мы понимаем как сложно прокачивать аккаунты на форумах, вроде раскачал аккаунт, а тут появляется ресурс в 100 раз круче но тоже с системой прокачки и снова качать аккаунт...
    Предлагаем вам перенести Ваши заслуги на другом подобном ресурсе к нам.
    Подробности описаны тут -> ссылка
  • Вы можете получать по 2.5% с каждой покупки и продажи на маркете! Подробности в теме Партнёрская программа
Если Вы не хотите скачивать, Вы всегда можетепосмотретьонлайн, просто нажмите кнопку ниже :

Открыть плеер

Torrent_Bot

Торрент-Бот
Бот форума
4 Окт 2016
92
160
20



Информация о фильме
Название: Двойной КОПец
Оригинальное название: Cop Out
Год выхода: 2010
Жанр:боевик, комедия
Режиссер: Кевин Смит
В ролях: Брюс Уиллис (Jimmy), Трэйси Морган (Paul), Адам Броди (Barry Mangold), Кевин Поллак (Hunsaker), Гильермо Диас (Poh Boy), Шонн Уильям Скотт (Dave), Мишель Трахтенберг (Ava), Джейсон Ли (Roy), Рашида Джонс (Debbie), Кори Фернандез (Juan), Хуан Карлос Эрнандес (Raul), Джейсон Харт (Youth #1)



История двух давних напарников — нью-йоркских полицейских, занятых поисками очень редкой и чертовски дорогой бейсбольной карточки, украденной у одного из них. Они вынуждены противостоять беспощадному гангстеру, просто помешанному на коллекционных вещицах.
Джимми, всю жизнь проработавший в полиции, возлагал на пропавшую карточку все свои надежды, так как только с помощью нее он мог бы оплатить предстоящую свадьбу дочери, а Пол, его так называемый «напарник в борьбе с преступностью», столь зацикливается на предполагаемой неверности своей жены, что ему становится уже непросто отслеживать пропажу.




Страна: США
Студия: Warner Bros. Pictures
Продолжительность: 01:47:30
Перевод: Дубляж

Файл
Кодек: H.264
Качество: WEB-DLRip 720p
Видео: 1280x720 (16:9), 5472 kbps, 23.976 fps
Звук: Русский (AC-3, 6ch, 384 kbps)
Английский (AC3, 6ch, 448 kbps)
Субтитры: русские, английские



MI
x264 [info]: frame I:1580 Avg QP:17.77 size:137022
x264 [info]: frame P:32342 Avg QP:18.77 size: 57849
x264 [info]: frame B:120619 Avg QP:21.48 size: 19249
x264 [info]: consecutive B-frames: 2.1% 2.7% 7.2% 12.8% 17.9% 50.8% 4.4% 0.9% 0.6% 0.5%

General
Unique ID : 76682428032406613266536876576167901437 (0x39B07F99799B90258BF4DD6223BF38FD)
Complete name : F:ФИЛЬМЫРУТОРДвойной КОПец (Open Matte).mkv
Format : Matroska
Format version : Version 4
File size : 4.73 GiB
Duration : 1 h 47 min
Overall bit rate : 6 307 kb/s
Movie name : Двойной КОПец / Cop Out (2010) - #LORDKILL#
Encoded date : UTC 2020-07-20 16:50:24
Writing application : mkvmerge v32.0.0 ('Astral Progressions') 64-bit
Writing library : libebml v1.3.7 + libmatroska v1.5.0

Video
ID : 1
Format : AVC
Format/Info : Advanced Video Codec
Format profile : [email protected]
Format settings : CABAC / 9 Ref Frames
Format settings, CABAC : Yes
Format settings, Reference : 9 frames
Codec ID : V_MPEG4/ISO/AVC
Duration : 1 h 47 min
Bit rate : 5 472 kb/s
Width : 1 280 pixels
Height : 720 pixels
Display aspect ratio : 16:9
Frame rate mode : Constant
Frame rate : 23.976 (24000/1001) FPS
Color space : YUV
Chroma subsampling : 4:2:0
Bit depth : 8 bits
Scan type : Progressive
Bits/(Pixel*Frame) : 0.248
Stream size : 4.11 GiB (87%)
Writing library : x264 core 159 r2991 1771b55
Encoding settings : cabac=1 / ref=9 / deblock=1:-2:-2 / analyse=0x3:0x133 / me=umh / subme=10 / psy=1 / psy_rd=1.00:0.20 / mixed_ref=1 / me_range=32 / chroma_me=1 / trellis=2 / 8x8dct=1 / cqm=0 / deadzone=21,11 / fast_pskip=0 / chroma_qp_offset=-3 / threads=12 / lookahead_threads=2 / sliced_threads=0 / nr=0 / decimate=1 / interlaced=0 / bluray_compat=0 / constrained_intra=0 / bframes=9 / b_pyramid=2 / b_adapt=2 / b_bias=0 / direct=1 / weightb=1 / open_gop=0 / weightp=2 / keyint=240 / keyint_min=23 / scenecut=40 / intra_refresh=0 / rc=crf / mbtree=0 / crf=19.0 / qcomp=0.60 / qpmin=0 / qpmax=69 / qpstep=4 / ip_ratio=1.40 / pb_ratio=1.30 / aq=1:1.00
Default : Yes
Forced : No

Audio #1
ID : 2
Format : AC-3
Format/Info : Audio Coding 3
Commercial name : Dolby Digital
Codec ID : A_AC3
Duration : 1 h 47 min
Bit rate mode : Constant
Bit rate : 384 kb/s
Channel(s) : 6 channels
Channel layout : L R C LFE Ls Rs
Sampling rate : 48.0 kHz
Frame rate : 31.250 FPS (1536 SPF)
Compression mode : Lossy
Stream size : 295 MiB (6%)
Title : Дубляж (R5)
Language : Russian
Service kind : Complete Main
Default : Yes
Forced : No

Audio #2
ID : 3
Format : AC-3
Format/Info : Audio Coding 3
Commercial name : Dolby Digital
Codec ID : A_AC3
Duration : 1 h 47 min
Bit rate mode : Constant
Bit rate : 448 kb/s
Channel(s) : 6 channels
Channel layout : L R C LFE Ls Rs
Sampling rate : 48.0 kHz
Frame rate : 31.250 FPS (1536 SPF)
Compression mode : Lossy
Stream size : 344 MiB (7%)
Language : English
Service kind : Complete Main
Default : No
Forced : No

Text #1
ID : 4
Format : UTF-8
Codec ID : S_TEXT/UTF8
Codec ID/Info : UTF-8 Plain Text
Duration : 1 h 32 min
Bit rate : 2 b/s
Count of elements : 59
Stream size : 2.01 KiB (0%)
Title : Captions
Language : Russian
Default : Yes
Forced : No

Text #2
ID : 5
Format : UTF-8
Codec ID : S_TEXT/UTF8
Codec ID/Info : UTF-8 Plain Text
Duration : 1 h 41 min
Bit rate : 95 b/s
Count of elements : 1508
Stream size : 71.0 KiB (0%)
Title : Full (R5)
Language : Russian
Default : No
Forced : No

Text #3
ID : 6
Format : UTF-8
Codec ID : S_TEXT/UTF8
Codec ID/Info : UTF-8 Plain Text
Duration : 1 h 41 min
Bit rate : 123 b/s
Count of elements : 1481
Stream size : 91.4 KiB (0%)
Title : Full (seqw0)
Language : Russian
Default : No
Forced : No

Text #4
ID : 7
Format : UTF-8
Codec ID : S_TEXT/UTF8
Codec ID/Info : UTF-8 Plain Text
Duration : 1 h 41 min
Bit rate : 118 b/s
Count of elements : 1517
Stream size : 87.8 KiB (0%)
Title : Full (Д.Пучков)
Language : Russian
Default : No
Forced : No

Text #5
ID : 8
Format : UTF-8
Codec ID : S_TEXT/UTF8
Codec ID/Info : UTF-8 Plain Text
Duration : 1 h 41 min
Bit rate : 77 b/s
Count of elements : 2489
Stream size : 58.1 KiB (0%)
Title : SDH
Language : English
Default : No
Forced : No
Скриншоты
Сравнение
 

Вложения

  • 12,8 KB Просмотры: 0
    Личеров 0
    Сидеров 0
    Файлов 1
    Объем 4,7 GB

Привет!

Мы группа людей которые решили помочь другим в решении их проблем, а так же пользователям с поиском самых свежих и качественных инфопродуктов. За 4 с небольшим месяца мы создали этот форум на который заходят ежедневно тысячи человек и посещаемость постоянно растёт. Мы создали панель лицензирования для защиты PHP скриптов от воровства и SEO панель для мониторинга наших сайтов и выбора верной стратегии их развития. Мы надеемся что то что мы создали пригодится Вам и возможно Вы поможете нам развиваться и совершенствоваться вместе с Вами.

Статистика форума

Темы
406.651
Сообщения
465.094
Пользователи
84.637
Новый пользователь
vaDosStroikov

Приложения форума для iOS и Android


У ркн там нет власти ;)
Приватные разговоры
Помощь Пользователи
    Вы не присоединились ни к одной комнате.