За последнюю неделю опубликовано 82 новых материалов.
Инструкция новичку Путеводитель по форуму Прокси для Telegram Показать подсказки , это бомба!

Скачать Двойная жизнь Чарли Сан-Клауда / Charlie St. Cloud (2010) BDRip 720p от NNNB | Лицензия бесплатно через торрент

  • Поучаствуй (в качестве покупателя) в любых пяти совместных покупках (кроме завершённых и "Моментальных") и получи группу "Новичок" навсегда -> ссылка на раздел
  • Получай до 480 рублей за каждого приглашенного пользователя!
    представляем Вам очередное расширение партнерской программы, подробности описаны тут -> ссылка
  • 90% материалов доступно к скачиванию после простой регистрации!
    Если же ты хочешь скачивать материалы без требования оставлять отзывы то получи группу "Новичок", 10 способов повышения описаны тут -> ссылка
  • К сожалению количество битых ссылок растет и мы уже не можем их оперативно восстанавливать поэтому просим помощи у каждого нашего пользователя.
    С сегодняшнего дня, за каждую восстановленную ссылку мы заплатим Вам.
    Подробнее тут -> ссылка
  • Перенесем твои заслуги с другого ресурса!
    Мы понимаем как сложно прокачивать аккаунты на форумах, вроде раскачал аккаунт, а тут появляется ресурс в 100 раз круче но тоже с системой прокачки и снова качать аккаунт...
    Предлагаем вам перенести Ваши заслуги на другом подобном ресурсе к нам.
    Подробности описаны тут -> ссылка
  • Вы можете получать по 2.5% с каждой покупки и продажи на маркете! Подробности в теме Партнёрская программа
Если Вы не хотите скачивать, Вы всегда можетепосмотретьонлайн, просто нажмите кнопку ниже :

Открыть плеер

Torrent_Bot

Торрент-Бот
Бот форума
4 Окт 2016
104
152
20
Двойная жизнь Чарли Сан-Клауда / Charlie St. Cloud
«Живи. Люби. Прощай»
Русское название: Двойная жизнь Чарли Сан-Клауда
Оригинальное название: Charlie St. Cloud
Год выпуска: 2010
Жанр: фэнтези, драма, мелодрама
Выпущено: США, Канада
Режиссер: Бёрр Стирс
В ролях: Зак Эфрон , Аманда Крю , Чарли Тахэн , Август Прю , Донал Лог , Ким Бейсингер , Рэй Лиотта , Дэйв Франко , Мэтт Уорд , Майлз Чалмерс , Джесси Вилер , Дезире Зуровски
Перевод: Дублированный

Сюжет фильма:
Чарли Сан-Клауд живет в тихом городке. Он преуспевает в спорте и готовится к учебе в престижном университете. Но случается трагедия - в аварии погибает его младший брат Сэм - и жизнь Чарли меняется. Он винит себя в случившемся. Прошлое не дает ему покоя.



Качество: BDRip 720p
Формат: AVC (библиотека кодирования x.264)
Контейнер (Расширение): MKV
Видео: 1280x534, 5216 Кбит/сек, 23,976 кадр/сек, 0,318 Бит/[Пиксели*Кадры]
Аудио №1: русский / AC3 / 5.1 / 48 kHz / 448 kbps / |Дублированный|
Аудио №2: английский / AC3 / 5.1 / 48 kHz / 640 kbps /
Субтитры: русские (Forced), русские (Full), английские (Full)
Навигация по главам(Чаптеры): есть
Продолжительность: 01:39:17

Автор рипа: Группа:

MediaInfo
Format : Matroska
Format version : Version 2
File size : 4.37 GiB
Duration : 1 h 39 min
Overall bit rate : 6 303 kb/s
Movie name : Charlie St. Cloud.(2010).BDRip.720p.[denis100]
Encoded date : UTC 2018-03-05 16:07:55
Writing application : mkvmerge v5.8.0 ('No Sleep / Pillow') built on Sep 2 2012 15:37:04
Writing library : libebml v1.2.3 + libmatroska v1.3.0

Video
ID : 1
Format : AVC
Format/Info : Advanced Video Codec
Format profile : High@L4.1
Format settings, CABAC : Yes
Format settings, ReFrames : 11 frames
Codec ID : V_MPEG4/ISO/AVC
Duration : 1 h 39 min
Bit rate : 5 216 kb/s
Width : 1 280 pixels
Height : 534 pixels
Display aspect ratio : 2.40:1
Frame rate mode : Constant
Frame rate : 23.976 (24000/1001) FPS
Color space : YUV
Chroma subsampling : 4:2:0
Bit depth : 8 bits
Scan type : Progressive
Bits/(Pixel*Frame) : 0.318
Stream size : 3.53 GiB (81%)
Title : Charlie St. Cloud.(2010).BDRip.720p.[denis100]
Writing library : x264 core 152 r2851 ba24899
Encoding settings : cabac=1 / ref=11 / deblock=1:-3:-3 / analyse=0x3:0x133 / me=umh / subme=11 / psy=1 / psy_rd=1.00:0.05 / mixed_ref=1 / me_range=32 / chroma_me=1 / trellis=2 / 8x8dct=1 / cqm=0 / deadzone=21,11 / fast_pskip=0 / chroma_qp_offset=-3 / threads=6 / lookahead_threads=1 / sliced_threads=0 / nr=0 / decimate=1 / interlaced=0 / bluray_compat=0 / constrained_intra=0 / bframes=8 / b_pyramid=2 / b_adapt=2 / b_bias=0 / direct=3 / weightb=1 / open_gop=0 / weightp=2 / keyint=240 / keyint_min=23 / scenecut=40 / intra_refresh=0 / rc=2pass / mbtree=0 / bitrate=5216 / ratetol=1.0 / qcomp=0.60 / qpmin=0 / qpmax=69 / qpstep=4 / cplxblur=20.0 / qblur=0.5 / ip_ratio=1.40 / pb_ratio=1.30 / aq=1:0.85
Language : English
Default : Yes
Forced : No

Audio #1
ID : 2
Format : AC-3
Format/Info : Audio Coding 3
Mode extension : CM (complete main)
Format settings, Endianness : Big
Codec ID : A_AC3
Duration : 1 h 39 min
Bit rate mode : Constant
Bit rate : 448 kb/s
Channel(s) : 6 channels
Channel positions : Front: L C R, Side: L R, LFE
Sampling rate : 48.0 kHz
Frame rate : 31.250 FPS (1536 spf)
Compression mode : Lossy
Stream size : 318 MiB (7%)
Title : DUB
Language : Russian
Default : Yes
Forced : No

Audio #2
ID : 3
Format : AC-3
Format/Info : Audio Coding 3
Mode extension : CM (complete main)
Format settings, Endianness : Big
Codec ID : A_AC3
Duration : 1 h 39 min
Bit rate mode : Constant
Bit rate : 640 kb/s
Channel(s) : 6 channels
Channel positions : Front: L C R, Side: L R, LFE
Sampling rate : 48.0 kHz
Frame rate : 31.250 FPS (1536 spf)
Compression mode : Lossy
Stream size : 454 MiB (10%)
Language : English
Default : No
Forced : No

Text #1
ID : 4
Format : UTF-8
Codec ID : S_TEXT/UTF8
Codec ID/Info : UTF-8 Plain Text
Title : Forced
Language : Russian
Default : Yes
Forced : No

Text #2
ID : 5
Format : UTF-8
Codec ID : S_TEXT/UTF8
Codec ID/Info : UTF-8 Plain Text
Title : Full
Language : Russian
Default : No
Forced : No

Text #3
ID : 6
Format : UTF-8
Codec ID : S_TEXT/UTF8
Codec ID/Info : UTF-8 Plain Text
Title : Full
Language : English
Default : No
Forced : No

Menu
00:00:00.000 : :00:00:00.000
00:04:02.116 : :00:04:02.116
00:08:40.311 : :00:08:40.311
00:13:48.369 : :00:13:48.369
00:17:05.691 : :00:17:05.691
00:23:49.719 : :00:23:49.719
00:28:39.217 : :00:28:39.217
00:33:50.236 : :00:33:50.236
00:37:58.484 : :00:37:58.484
00:42:09.693 : :00:42:09.693
00:46:30.412 : :00:46:30.412
00:50:41.496 : :00:50:41.496
00:57:38.580 : :00:57:38.580
01:03:38.272 : :01:03:38.272
01:10:30.601 : :01:10:30.601
01:14:48.817 : :01:14:48.817
01:17:39.571 : :01:17:39.571
01:20:06.134 : :01:20:06.134
01:26:06.661 : :01:26:06.661
01:32:58.906 : :01:32:58.906
x264
x264 [info]: frame I:1135 Avg QP:13.76 size:153192
x264 [info]: frame P:32445 Avg QP:15.72 size: 49529
x264 [info]: frame B:109245 Avg QP:18.19 size: 19230
Скриншоты
 

Вложения

  • 22,9 KB Просмотры: 1
    Личеров 0
    Сидеров 0
    Файлов 1
    Объем 4,4 GB

Привет!

Мы группа людей которые решили помочь другим в решении их проблем, а так же пользователям с поиском самых свежих и качественных инфопродуктов. За 4 с небольшим месяца мы создали этот форум на который заходят ежедневно тысячи человек и посещаемость постоянно растёт. Мы создали панель лицензирования для защиты PHP скриптов от воровства и SEO панель для мониторинга наших сайтов и выбора верной стратегии их развития. Мы надеемся что то что мы создали пригодится Вам и возможно Вы поможете нам развиваться и совершенствоваться вместе с Вами.

Статистика форума

Темы
404.541
Сообщения
461.436
Пользователи
80.065
Новый пользователь
Сагира

Приложения форума для iOS и Android


У ркн там нет власти ;)
Приватные разговоры
Помощь Пользователи
    Вы не присоединились ни к одной комнате.