За последнюю неделю опубликовано 68 новых материалов.
Инструкция новичку Путеводитель по форуму Прокси для Telegram Показать подсказки , это бомба!

Скачать Душа моя Мария / Душа мая Марыя (1993) DVB от AND03AND бесплатно через торрент

  • Поучаствуй (в качестве покупателя) в любых пяти совместных покупках (кроме завершённых и "Моментальных") и получи группу "Новичок" навсегда -> ссылка на раздел
  • Получай до 480 рублей за каждого приглашенного пользователя!
    представляем Вам очередное расширение партнерской программы, подробности описаны тут -> ссылка
  • 90% материалов доступно к скачиванию после простой регистрации!
    Если же ты хочешь скачивать материалы без требования оставлять отзывы то получи группу "Новичок", 10 способов повышения описаны тут -> ссылка
  • К сожалению количество битых ссылок растет и мы уже не можем их оперативно восстанавливать поэтому просим помощи у каждого нашего пользователя.
    С сегодняшнего дня, за каждую восстановленную ссылку мы заплатим Вам.
    Подробнее тут -> ссылка
  • Перенесем твои заслуги с другого ресурса!
    Мы понимаем как сложно прокачивать аккаунты на форумах, вроде раскачал аккаунт, а тут появляется ресурс в 100 раз круче но тоже с системой прокачки и снова качать аккаунт...
    Предлагаем вам перенести Ваши заслуги на другом подобном ресурсе к нам.
    Подробности описаны тут -> ссылка
  • Вы можете получать по 2.5% с каждой покупки и продажи на маркете! Подробности в теме Партнёрская программа
Если Вы не хотите скачивать, Вы всегда можетепосмотретьонлайн, просто нажмите кнопку ниже :

Открыть плеер

Torrent_Bot

Торрент-Бот
Бот форума
4 Окт 2016
82
186
20
Информация о фильме
Название: Душа моя Мария / Душа мая Марыя
Год выхода: 1993
Жанр: Притча, драма
Режиссер: Вячеслав Никифоров
В ролях: Владимир Самойлов, Алла Хоменко, Александр Самойлов, Анатолий Жук, Татьяна Попова, Владимир Корпусь, Ариадна Никифорова, Артур Шинкович, Пётр Юрченков, Владимир Запасник, Татьяна Ненарокомова

О фильме:
Притча, фантасмагорическая драма по мотивам пьесы Д.Михлеева "И третий ангел вострубил".
Об одиноком старике-крестьянине, живущем в зоне катастрофы после чернобыльской аварии.

Доп. информация:
Сценаристы: Евгений Таганов, Вячеслав Никифоров
Оператор: Александр Абадовский
Композитор: Андрей Леденёв
Художник: Леонид Ершов

Запись потока *.ts с наземного цифрового телеканала "Беларусь 3".



НАГРАДЫ, НОМИНАЦИИ, ФЕСТИВАЛИ:
Особое упоминание жюри МКФ в Лагове—95

Благодарность: за помощь с недостающим материалом Bartimeyse и PavelDAS. Обоим большое спасибо!

Давно разыскивается. Представлен впервые в Инете!
Во время трансляции фильма присутствуют полупрозрачные анонсы передач внизу экрана (видно на одном из скринов).

Страна: Республика Беларусь
Студия: Киновидеотудия "КАДР—2" при участии "Беларусьфильм"
Продолжительность: 01:17:47
Перевод: не требует

Файл
Кодек: AVC (H264)
Качество: DVB
Видео: MPEG4 Video (H264) 720(785)x576 (49:36) 25fps, 2 288 kb/s
Звук: MPEG Audio 48000Hz stereo 256kbps

Семпл

MediaInfo
General
ID : 1 (0x1)
Complete name : D:Новая земля 2Художественные фильмыДуша моя Мария (1993)Душа моя Мария (1993).ts
Format : MPEG-TS
File size : 1.46 GiB
Duration : 1 h 17 min
Overall bit rate mode : Variable
Overall bit rate : 2 679 kb/s

Video
ID : 801 (0x321)
Menu ID : 1 (0x1)
Format : AVC
Format/Info : Advanced Video Codec
Format profile : [email protected]
Format settings, CABAC : Yes
Format settings, ReFrames : 4 frames
Format settings, GOP : M=4, N=24
Codec ID : 27
Duration : 1 h 17 min
Bit rate : 2 288 kb/s
Width : 720 pixels
Height : 576 pixels
Display aspect ratio : 4:3
Frame rate : 25.000 FPS
Standard : PAL
Color space : YUV
Chroma subsampling : 4:2:0
Bit depth : 8 bits
Scan type : MBAFF
Scan type, store method : Interleaved fields
Scan order : Top Field First
Bits/(Pixel*Frame) : 0.221
Stream size : 1.24 GiB (85%)
Color range : Limited
Color primaries : BT.601 PAL
Transfer characteristics : BT.470 System B, BT.470 System G
Matrix coefficients : BT.601

Audio
ID : 802 (0x322)
Menu ID : 1 (0x1)
Format : MPEG Audio
Format version : Version 1
Format profile : Layer 2
Codec ID : 3
Duration : 1 h 17 min
Bit rate mode : Constant
Bit rate : 256 kb/s
Channel(s) : 2 channels
Sampling rate : 48.0 kHz
Compression mode : Lossy
Stream size : 142 MiB (10%)
Language : English

Text
ID : 803 (0x323)-800
Menu ID : 1 (0x1)
Format : Teletext Subtitle
Language : Russian
Language, more info : For hearing impaired people

Скриншот c названием фильма
Скриншоты
 

Вложения

  • 16,8 KB Просмотры: 1
    Личеров 0
    Сидеров 0
    Файлов 1
    Объем 1,5 GB

Привет!

Мы группа людей которые решили помочь другим в решении их проблем, а так же пользователям с поиском самых свежих и качественных инфопродуктов. За 4 с небольшим месяца мы создали этот форум на который заходят ежедневно тысячи человек и посещаемость постоянно растёт. Мы создали панель лицензирования для защиты PHP скриптов от воровства и SEO панель для мониторинга наших сайтов и выбора верной стратегии их развития. Мы надеемся что то что мы создали пригодится Вам и возможно Вы поможете нам развиваться и совершенствоваться вместе с Вами.

Статистика форума

Темы
412.187
Сообщения
471.236
Пользователи
91.689
Новый пользователь
ghgg3

Приложения форума для iOS и Android


У ркн там нет власти ;)
Приватные разговоры
Помощь Пользователи
    Вы не присоединились ни к одной комнате.