За последнюю неделю опубликовано 0 новых материалов.
Инструкция новичку Путеводитель по форуму Прокси для Telegram Показать подсказки , это бомба!

Скачать Дуэлянт (2016) BDRip 1080p от OlLanDGroup | Лицензия бесплатно через торрент

  • Поучаствуй (в качестве покупателя) в любых пяти совместных покупках (кроме завершённых и "Моментальных") и получи группу "Новичок" навсегда -> ссылка на раздел
  • Получай до 480 рублей за каждого приглашенного пользователя!
    представляем Вам очередное расширение партнерской программы, подробности описаны тут -> ссылка
  • 90% материалов доступно к скачиванию после простой регистрации!
    Если же ты хочешь скачивать материалы без требования оставлять отзывы то получи группу "Новичок", 10 способов повышения описаны тут -> ссылка
  • К сожалению количество битых ссылок растет и мы уже не можем их оперативно восстанавливать поэтому просим помощи у каждого нашего пользователя.
    С сегодняшнего дня, за каждую восстановленную ссылку мы заплатим Вам.
    Подробнее тут -> ссылка
  • Перенесем твои заслуги с другого ресурса!
    Мы понимаем как сложно прокачивать аккаунты на форумах, вроде раскачал аккаунт, а тут появляется ресурс в 100 раз круче но тоже с системой прокачки и снова качать аккаунт...
    Предлагаем вам перенести Ваши заслуги на другом подобном ресурсе к нам.
    Подробности описаны тут -> ссылка
  • Вы можете получать по 2.5% с каждой покупки и продажи на маркете! Подробности в теме Партнёрская программа
Если Вы не хотите скачивать, Вы всегда можетепосмотретьонлайн, просто нажмите кнопку ниже :

Открыть плеер

Torrent_Bot

Торрент-Бот
Бот форума
4 Окт 2016
79
196
20

Информация о фильме

Оригинальное название: Дуэлянт
Год выпуска: 2016
Жанр:Драма
Выпущено: Россия, Нон-стоп Продакшн
Режиссер: Алексей Мизгирёв
В ролях: Пётр Фёдоров мл., Владимир Машков, Юлия Хлынина, Франциска Петри, Мартин Вуттке, Сергей Гармаш, Павел Табаков, Юрий Колокольников, Александр Яценко, Пьер Бурель, Юрий Кузнецов


О фильме: В центре сюжета профессиональный дуэлянт, который зарабатывает на жизнь, участвуя в поединках за других людей. Фильм завораживает игрой красок, тонов и оттенков, которые заставляют узнавать, сравнивать и воспринимать площади, улицы, дворы и подворотни знакомого с детства города как-то иначе, ибо действительно прекрасно передан дух того, теперь уже далёкого, 19 века. Сюжет фильма порывист и как бы составлен из разных мазков кистью художника, но, по мере просмотра, все эти впечатляющие то своей динамикой, то вялостью текущего действа лоскутки сливаются в красивый, не отпускающий тебя до самого конца узор повествования. Прекрасно костюмированная картина, подчеркнутая великолепно прочувствованной актёрами атмосферой того времени, передает реальное ощущение достоверности событий, в которые полностью погружаешься с первых же просмотренных кадров фильма.





Файл

Качество: BDRip (1080p)
Видео: MPEG-4 AVC, 9307 Кбит/с, 1920x816, 24 кадр/с
Аудио: Русский (AC3, 6 ch, 640 Кбит/с), (DTS, 6 ch, 1510 Кбит/с)
Размер: 8.73 ГБ
Продолжительность: 01:49:03
Язык: Русский


Сохранены оригинальные чаптеры как на Blu-Ray.
---------------------------------------------------
Озвучивание - Лицензия

x264
x264 [info]: frame I:1078 Avg QP:13.96 size:217606
x264 [info]: frame P:32461 Avg QP:16.77 size: 81320
x264 [info]: frame B:123501 Avg QP:18.02 size: 38335
x264 [info]: consecutive B-frames: 1.8% 3.4% 6.6% 12.5% 12.6% 52.0% 5.1% 1.0% 2.6% 0.5% 2.1%
x264 [info]: mb I I16..4: 32.6% 35.6% 31.8%
x264 [info]: mb P I16..4: 15.8% 12.2% 11.8% P16..4: 24.7% 19.2% 5.9% 0.9% 0.1% skip: 9.5%
x264 [info]: mb B I16..4: 7.8% 4.1% 2.7% B16..8: 23.7% 15.4% 2.6% direct:10.1% skip:33.7% L0:43.5% L1:35.9% BI:20.6%
x264 [info]: 8x8 transform intra:29.5% inter:29.3%
x264 [info]: direct mvs spatial:98.9% temporal:1.1%
x264 [info]: coded y,uvDC,uvAC intra: 81.7% 64.9% 35.6% inter: 30.6% 32.7% 7.1%
x264 [info]: i16 v,h,dc,p: 14% 10% 53% 24%
x264 [info]: i8 v,h,dc,ddl,ddr,vr,hd,vl,hu: 28% 14% 26% 4% 5% 6% 5% 6% 7%
x264 [info]: i4 v,h,dc,ddl,ddr,vr,hd,vl,hu: 25% 11% 40% 3% 4% 5% 4% 3% 4%
x264 [info]: i8c dc,h,v,p: 24% 37% 28% 10%
x264 [info]: Weighted P-Frames: Y:4.2% UV:1.6%
x264 [info]: ref P L0: 40.4% 9.8% 27.8% 10.2% 10.8% 0.9% 0.0%
x264 [info]: ref B L0: 69.5% 21.5% 7.1% 1.8%
x264 [info]: ref B L1: 90.2% 9.8%
x264 [info]: kb/s:9302.61

Инфо-файл
Общее
Уникальный идентификатор : 240127278433445046380441148311188913689 (0xB4A6D4E3BB748154B1DA77B47BDDBE19)
Полное имя : D:ЗагрузкиDuelyant.2016.x264.BDRip.(1080p).OlLanDGroup.mkv
Формат : Matroska
Версия формата : Version 2
Размер файла : 8,73 Гбайт
Продолжительность : 1 ч. 49 м.
Общий поток : 11,5 Мбит/сек
Название фильма : Дуэлянт.2016.Rip by: ollan
Дата кодирования : UTC 2017-01-14 01:57:05
Программа кодирования : mkvmerge v5.6.0 ('Kenya Kane') built on May 27 2012 16:44:04
Библиотека кодирования : libebml v1.2.3 + libmatroska v1.3.0
Attachements : Cover - Duelyant.png

Видео
Идентификатор : 1
Формат : AVC
Формат/Информация : Advanced Video Codec
Профиль формата : [email protected]
Параметр CABAC формата : Да
Параметр ReFrames формата : 5 кадров
Идентификатор кодека : V_MPEG4/ISO/AVC
Продолжительность : 1 ч. 49 м.
Битрейт : 9307 Кбит/сек
Ширина : 1920 пикселей
Высота : 816 пикселей
Соотношение сторон : 2,35:1
Режим частоты кадров : Постоянный
Частота кадров : 24,000 кадра/сек
Цветовое пространство : YUV
Субдискретизация насыщенности : 4:2:0
Битовая глубина : 8 бит
Тип развёртки : Прогрессивная
Бит/(Пиксели*Кадры) : 0.248
Размер потока : 6,91 Гбайт (79%)
Библиотека кодирования : x264 core 146 r2538 121396c
Настройки программы : cabac=1 / ref=5 / deblock=1:-3:-3 / analyse=0x3:0x133 / me=umh / subme=11 / psy=1 / psy_rd=0.05:0.10 / mixed_ref=1 / me_range=48 / chroma_me=1 / trellis=2 / 8x8dct=1 / cqm=0 / deadzone=21,11 / fast_pskip=0 / chroma_qp_offset=-2 / threads=12 / lookahead_threads=3 / sliced_threads=0 / nr=0 / decimate=0 / interlaced=0 / bluray_compat=0 / constrained_intra=0 / bframes=10 / b_pyramid=2 / b_adapt=2 / b_bias=0 / direct=3 / weightb=1 / open_gop=0 / weightp=2 / keyint=240 / keyint_min=23 / scenecut=40 / intra_refresh=0 / rc_lookahead=40 / rc=2pass / mbtree=0 / bitrate=9307 / ratetol=1.0 / qcomp=0.60 / qpmin=0 / qpmax=69 / qpstep=4 / cplxblur=20.0 / qblur=0.5 / vbv_maxrate=50000 / vbv_bufsize=62500 / nal_hrd=none / filler=0 / ip_ratio=1.40 / pb_ratio=1.30 / aq=1:1.00
Язык : Russian
Default : Да
Forced : Нет

Аудио #1
Идентификатор : 2
Формат : AC-3
Формат/Информация : Audio Coding 3
Расширение режима : CM (complete main)
Параметр Endianness формата : Big
Идентификатор кодека : A_AC3
Продолжительность : 1 ч. 49 м.
Вид битрейта : Постоянный
Битрейт : 640 Кбит/сек
Каналы : 6 каналов
Расположение каналов : Front: L C R, Side: L R, LFE
Частота : 48,0 КГц
Частота кадров : 31,250 кадров/сек (1536 spf)
Метод сжатия : С потерями
Размер потока : 499 Мбайт (6%)
Заголовок : Лицензия
Язык : Russian
Default : Да
Forced : Нет

Аудио #2
Идентификатор : 3
Формат : DTS
Формат/Информация : Digital Theater Systems
Режим : 16
Параметр Endianness формата : Big
Идентификатор кодека : A_DTS
Продолжительность : 1 ч. 49 м.
Вид битрейта : Постоянный
Битрейт : 1510 Кбит/сек
Каналы : 6 каналов
Расположение каналов : Front: L C R, Side: L R, LFE
Частота : 48,0 КГц
Частота кадров : 93,750 кадра/сек (512 spf)
Битовая глубина : 24 бит
Метод сжатия : С потерями
Размер потока : 1,15 Гбайт (13%)
Заголовок : Лицензия
Язык : Russian
Default : Нет
Forced : Нет

Меню
00:00:00.000 : ru:Chapter 01
00:09:44.291 : ru:Chapter 02
00:16:05.083 : ru:Chapter 03
00:23:55.666 : ru:Chapter 04
00:37:25.083 : ru:Chapter 05
00:48:23.541 : ru:Chapter 06
00:58:41.166 : ru:Chapter 07
01:07:47.041 : ru:Chapter 08
01:16:38.166 : ru:Chapter 09
01:23:24.625 : ru:Chapter 10
01:30:59.708 : ru:Chapter 11
01:37:55.041 : ru:Chapter 12
01:49:03.291 : ru:Chapter 13

Скриншоты


 

Вложения

  • 22,8 KB Просмотры: 0
    Личеров 0
    Сидеров 0
    Файлов 1
    Объем 8,7 GB

Привет!

Мы группа людей которые решили помочь другим в решении их проблем, а так же пользователям с поиском самых свежих и качественных инфопродуктов. За 4 с небольшим месяца мы создали этот форум на который заходят ежедневно тысячи человек и посещаемость постоянно растёт. Мы создали панель лицензирования для защиты PHP скриптов от воровства и SEO панель для мониторинга наших сайтов и выбора верной стратегии их развития. Мы надеемся что то что мы создали пригодится Вам и возможно Вы поможете нам развиваться и совершенствоваться вместе с Вами.

Статистика форума

Темы
414.370
Сообщения
475.396
Пользователи
96.561
Новый пользователь
starushka

Приложения форума для iOS и Android


У ркн там нет власти ;)
Приватные разговоры
Помощь Пользователи
    Вы не присоединились ни к одной комнате.