За последнюю неделю опубликовано 46 новых материалов.
Инструкция новичку Путеводитель по форуму Прокси для Telegram Показать подсказки , это бомба!

Скачать Дублёр (2013) BDRip-AVC от FREEISLAND бесплатно через торрент

  • Поучаствуй (в качестве покупателя) в любых пяти совместных покупках (кроме завершённых и "Моментальных") и получи группу "Новичок" навсегда -> ссылка на раздел
  • Получай до 480 рублей за каждого приглашенного пользователя!
    представляем Вам очередное расширение партнерской программы, подробности описаны тут -> ссылка
  • 90% материалов доступно к скачиванию после простой регистрации!
    Если же ты хочешь скачивать материалы без требования оставлять отзывы то получи группу "Новичок", 10 способов повышения описаны тут -> ссылка
  • К сожалению количество битых ссылок растет и мы уже не можем их оперативно восстанавливать поэтому просим помощи у каждого нашего пользователя.
    С сегодняшнего дня, за каждую восстановленную ссылку мы заплатим Вам.
    Подробнее тут -> ссылка
  • Перенесем твои заслуги с другого ресурса!
    Мы понимаем как сложно прокачивать аккаунты на форумах, вроде раскачал аккаунт, а тут появляется ресурс в 100 раз круче но тоже с системой прокачки и снова качать аккаунт...
    Предлагаем вам перенести Ваши заслуги на другом подобном ресурсе к нам.
    Подробности описаны тут -> ссылка
  • Вы можете получать по 2.5% с каждой покупки и продажи на маркете! Подробности в теме Партнёрская программа
Если Вы не хотите скачивать, Вы всегда можетепосмотретьонлайн, просто нажмите кнопку ниже :

Открыть плеер

Torrent_Bot

Торрент-Бот
Бот форума
4 Окт 2016
91
163
20
Год выпуска: 2013
Страна: Россия
Жанр: Комедия
Перевод: Не требуется
Продолжительность: 01:23:34

Режиссер: Евгений Абызов
Продюссер: Владимир Поляков, Георгий Малков, Гевонд Андреасян
Сценарий: Сергей Мохначев, Павел Карнаухов

Бюджет: $6 322 465
Премьера в мире: 10 января 2013

6.40 (26)


В ролях: Александр Ревва, Кристина Асмус, Дмитрий Хрусталев, Людмила Артемьева, Татьяна Орлова, Ксения Буравская, Варвара Малкова, Александра Кимаева, Евгений Шиманович, Алексей Рязанцев, ...

Описание: Главный герой нашей истории — успешный актер, звезда шоу-бизнеса Игорь Успенский. Его жизнь — сплошные съемки, концерты, презентации, корпоративы, интервью и светские тусовки. Он вынужден «крутиться» день и ночь, у него нет выходных и праздников. А его очаровательная жена и прекрасная дочка видят его в лучшем случае поздно ночью, когда он приезжает домой, чтобы поспать хотя бы пару часов. Но все труды не проходят даром. Игорь очень популярен и однажды его кандидатуру выдвигают на премию «Человек года» — теперь ему нужно еще больше времени, чтобы победить главного конкурента — певца Михаила Стасова, главные хиты которого свели с ума всех женщин России...В подмосковном городе живет Сева, человек, чрезвычайно похожий на Игоря Успенского. Он работает массажистом в салоне красоты, живет вдвоем с собакой по имени Сергей Валерьевич, абсолютно доволен своей жизнью и не признает сходства со звездой. Однажды директор салона убеждает Севу сняться в рекламном ролике, где САМ Игорь Успенский (конечно, изображаемый Севой) делает массаж клиентам салона. Ролик оказывается в интернете — так о своем двойнике узнает Успенский. Понимая, что времени ни на что не хватает, Успенский решает не подавать в суд на салон, а предложить Севе стать своим Дублером. Тому лишь нужно посетить несколько корпоративов и светских тусовок в образе Игоря Успенского. Сева принимает предложение и... попадает в незнакомый мир шоу-бизнеса, где его ждут невероятные приключения...

Качество: BDRip-AVC
Формат: MKV
Видео кодек: H.264
Аудио кодек: AC3
Видео: H.264, 1024x466 pix., 24.000 fps, 1942 Kbps, [email protected]
Аудио: AC3, 48.0 KHz, 384 Kbps, 6 channels, 16 bits

MediaInfo
General
Unique ID : 207800782050419499730452978140827009625 (0x9C54F9908AF83331BAF355C7AF0AC259)
Complete name : D:BDRip-AVCДублёр (2013).mkv
Format : Matroska
Format version : Version 2
File size : 1.36 GiB
Duration : 1h 23mn
Overall bit rate : 2 323 Kbps
Encoded date : UTC 2013-02-02 06:12:20
Writing application : mkvmerge v5.8.0 ('No Sleep / Pillow') built on Sep 2 2012 15:37:04
Writing library : libebml v1.2.3 + libmatroska v1.3.0

Video
ID : 1
Format : AVC
Format/Info : Advanced Video Codec
Format profile : [email protected]
Format settings, CABAC : Yes
Format settings, ReFrames : 15 frames
Codec ID : V_MPEG4/ISO/AVC
Duration : 1h 23mn
Bit rate : 1 942 Kbps
Width : 1 024 pixels
Height : 466 pixels
Display aspect ratio : 2.2:1
Frame rate mode : Constant
Frame rate : 24.000 fps
Color space : YUV
Chroma subsampling : 4:2:0
Bit depth : 8 bits
Scan type : Progressive
Bits/(Pixel*Frame) : 0.170
Stream size : 1.11 GiB (81%)
Writing library : x264 core 129 r2245+704+35 dbbd7a1 tMod [[email protected] X86_64]
Encoding settings : cabac=1 / ref=15 / deblock=1:-3:-3 / analyse=0x3:0x133 / me=tesa / subme=11 / psy=1 / fade_compensate=0.00 / psy_rd=1.00:0.15 / mixed_ref=1 / me_range=64 / chroma_me=1 / trellis=2 / 8x8dct=1 / cqm=0 / deadzone=21,11 / fast_pskip=1 / chroma_qp_offset=-3 / threads=4 / lookahead_threads=1 / sliced_threads=0 / nr=0 / decimate=1 / interlaced=0 / bluray_compat=0 / constrained_intra=0 / fgo=0 / bframes=8 / b_pyramid=2 / b_adapt=2 / b_bias=0 / direct=2 / weightb=1 / open_gop=0 / weightp=1 / keyint=240 / keyint_min=25 / scenecut=40 / intra_refresh=0 / rc_lookahead=50 / rc=2pass / mbtree=1 / bitrate=1942 / ratetol=1.0 / qcomp=0.60 / qpmin=0 / qpmax=69 / qpstep=4 / cplxblur=20.0 / qblur=0.5 / ip_ratio=1.40 / aq=1:1.00
Language : Russian
Default : Yes
Forced : No
Color primaries : BT.709
Transfer characteristics : BT.709
Matrix coefficients : BT.709

Audio
ID : 2
Format : AC-3
Format/Info : Audio Coding 3
Mode extension : CM (complete main)
Format settings, Endianness : Big
Codec ID : A_AC3
Duration : 1h 23mn
Bit rate mode : Constant
Bit rate : 384 Kbps
Channel(s) : 6 channels
Channel positions : Front: L C R, Side: L R, LFE
Sampling rate : 48.0 KHz
Bit depth : 16 bits
Compression mode : Lossy
Stream size : 230 MiB (17%)
Language : Russian
Default : Yes
Forced : No
Скриншоты
Релиз от:
 

Вложения

  • 14,6 KB Просмотры: 0
    Личеров 0
    Сидеров 0
    Файлов 1
    Объем 1,4 GB

Привет!

Мы группа людей которые решили помочь другим в решении их проблем, а так же пользователям с поиском самых свежих и качественных инфопродуктов. За 4 с небольшим месяца мы создали этот форум на который заходят ежедневно тысячи человек и посещаемость постоянно растёт. Мы создали панель лицензирования для защиты PHP скриптов от воровства и SEO панель для мониторинга наших сайтов и выбора верной стратегии их развития. Мы надеемся что то что мы создали пригодится Вам и возможно Вы поможете нам развиваться и совершенствоваться вместе с Вами.

Статистика форума

Темы
410.521
Сообщения
469.057
Пользователи
85.939
Новый пользователь
saunty

Приложения форума для iOS и Android


У ркн там нет власти ;)
Приватные разговоры
Помощь Пользователи
    Вы не присоединились ни к одной комнате.