За последнюю неделю опубликовано 30 новых материалов.
Инструкция новичку Путеводитель по форуму Прокси для Telegram Показать подсказки , это бомба!

Скачать Дрожь земли: Коллекция / Tremors: Collection (1990-2018) BDRip 720p | D бесплатно через торрент

  • Поучаствуй (в качестве покупателя) в любых пяти совместных покупках (кроме завершённых и "Моментальных") и получи группу "Новичок" навсегда -> ссылка на раздел
  • Получай до 480 рублей за каждого приглашенного пользователя!
    представляем Вам очередное расширение партнерской программы, подробности описаны тут -> ссылка
  • 90% материалов доступно к скачиванию после простой регистрации!
    Если же ты хочешь скачивать материалы без требования оставлять отзывы то получи группу "Новичок", 10 способов повышения описаны тут -> ссылка
  • К сожалению количество битых ссылок растет и мы уже не можем их оперативно восстанавливать поэтому просим помощи у каждого нашего пользователя.
    С сегодняшнего дня, за каждую восстановленную ссылку мы заплатим Вам.
    Подробнее тут -> ссылка
  • Перенесем твои заслуги с другого ресурса!
    Мы понимаем как сложно прокачивать аккаунты на форумах, вроде раскачал аккаунт, а тут появляется ресурс в 100 раз круче но тоже с системой прокачки и снова качать аккаунт...
    Предлагаем вам перенести Ваши заслуги на другом подобном ресурсе к нам.
    Подробности описаны тут -> ссылка
  • Вы можете получать по 2.5% с каждой покупки и продажи на маркете! Подробности в теме Партнёрская программа
Если Вы не хотите скачивать, Вы всегда можетепосмотретьонлайн, просто нажмите кнопку ниже :

Открыть плеер

Torrent_Bot

Торрент-Бот
Бот форума
4 Окт 2016
93
160
20


Дрожь земли / Tremors (1990) BDRip 720p | D
Информация о фильме
Название: Дрожь земли
Оригинальное название: Tremors
Год выхода: 1990
Жанр: комедия, ужасы
Режиссер: Рон Андервуд
В ролях: Кевин Бейкон, Фред Уорд, Финн Картер, Майкл Гросс, Риба МакИнтайр, Роберт Джейн, Шарлотта Стюарт, Тони Дженаро, Ариана Ричардс, Ричард Маркус

О фильме:
Сезонные разнорабочие Вэл Макки и Эрл Бассетт решают покинуть крошечный город Перфекшн, что в штате Невада, но зловещие подземные толчки мешают их отъезду. С помощью студентки-сейсмолога они выясняют, что городок наводнен гигантскими плотоядными червями, обитающими под землей. Теперь кучке храбрецов предстоит вступить в битву с исполинскими тварями, которые решили полакомиться людьми.



Страна: США
Продолжительность: 01:35:38
Перевод: профессиональный (дублированный) ТВ-3

Файл
Кодек: H264
Видео: 6 099 kb/s, 1280x692, 23.976fps
Звук: ac3, 48000 Hz, stereo, 192 kb/s
Субтитры: русские
MediaInfo
General
Unique ID : 247499568544721051408852731513082758601 (0xBA32AEDAF1A86B6ABFF0C6E4A05445C9)
Complete name : d:DownloadsДрожь земли Коллекция BDRip 720p1. Дрожь земли.1990.BDRip.720p.mkv
Format : Matroska
Format version : Version 4 / Version 2
File size : 4.20 GiB
Duration : 1 h 35 min
Overall bit rate : 6 293 kb/s
Encoded date : UTC 2020-07-14 14:35:21
Writing application : mkvmerge v8.3.0 ('Over the Horizon') 64bit
Writing library : libebml v1.3.1 + libmatroska v1.4.2

Video
ID : 1
Format : AVC
Format/Info : Advanced Video Codec
Format profile : [email protected]
Format settings : CABAC / 6 Ref Frames
Format settings, CABAC : Yes
Format settings, ReFrames : 6 frames
Codec ID : V_MPEG4/ISO/AVC
Duration : 1 h 35 min
Bit rate : 6 099 kb/s
Width : 1 280 pixels
Height : 692 pixels
Display aspect ratio : 1.85:1
Frame rate mode : Constant
Frame rate : 23.976 (24000/1001) FPS
Color space : YUV
Chroma subsampling : 4:2:0
Bit depth : 8 bits
Scan type : Progressive
Bits/(Pixel*Frame) : 0.287
Stream size : 4.07 GiB (97%)
Writing library : x264 core 130 r2273 b3065e6
Encoding settings : cabac=1 / ref=6 / deblock=1:-2:-2 / analyse=0x3:0x112 / me=umh / subme=10 / psy=1 / psy_rd=1.00:0.15 / mixed_ref=1 / me_range=32 / chroma_me=1 / trellis=2 / 8x8dct=1 / cqm=0 / deadzone=21,11 / fast_pskip=1 / chroma_qp_offset=-3 / threads=12 / lookahead_threads=1 / sliced_threads=0 / nr=0 / decimate=1 / interlaced=0 / bluray_compat=0 / constrained_intra=0 / bframes=7 / b_pyramid=2 / b_adapt=1 / b_bias=0 / direct=3 / weightb=1 / open_gop=0 / weightp=1 / keyint=240 / keyint_min=23 / scenecut=40 / intra_refresh=0 / rc_lookahead=40 / rc=2pass / mbtree=0 / bitrate=6099 / ratetol=1.0 / qcomp=0.60 / qpmin=0 / qpmax=69 / qpstep=4 / cplxblur=20.0 / qblur=0.5 / vbv_maxrate=62500 / vbv_bufsize=78125 / nal_hrd=none / ip_ratio=1.40 / pb_ratio=1.30 / aq=1:1.00 / zones=132524,137565,b=0.25
Language : English
Default : Yes
Forced : No

Audio
ID : 2
Format : AC-3
Format/Info : Audio Coding 3
Codec ID : A_AC3
Duration : 1 h 35 min
Bit rate mode : Constant
Bit rate : 192 kb/s
Channel(s) : 2 channels
Channel positions : Front: L R
Sampling rate : 48.0 kHz
Frame rate : 31.250 FPS (1536 SPF)
Bit depth : 16 bits
Compression mode : Lossy
Stream size : 131 MiB (3%)
Language : Russian
Service kind : Complete Main
Default : Yes
Forced : No

Text #1
ID : 3
Format : UTF-8
Codec ID : S_TEXT/UTF8
Codec ID/Info : UTF-8 Plain Text
Duration : 1 h 31 min
Bit rate : 79 b/s
Count of elements : 1013
Stream size : 53.2 KiB (0%)
Title : Rus #1
Language : Russian
Default : No
Forced : No

Text #2
ID : 4
Format : UTF-8
Codec ID : S_TEXT/UTF8
Codec ID/Info : UTF-8 Plain Text
Duration : 1 h 31 min
Bit rate : 85 b/s
Count of elements : 948
Stream size : 56.9 KiB (0%)
Title : Rus #2
Language : Russian
Default : No
Forced : No

Text #3
ID : 5
Format : UTF-8
Codec ID : S_TEXT/UTF8
Codec ID/Info : UTF-8 Plain Text
Duration : 1 h 35 min
Bit rate : 89 b/s
Count of elements : 1026
Stream size : 62.5 KiB (0%)
Title : Rus #3
Language : Russian
Default : No
Forced : No
Дрожь земли 2: Повторный удар / Tremors 2: Aftershocks (1996) BDRip 720p | D
Информация о фильме
Название: Дрожь земли 2: Повторный удар
Оригинальное название: Tremors 2: Aftershocks
Год выхода: 1996
Жанр: Фантастика, приключения, боевик, комедия
Режиссер: Сид Уилсон
В ролях: Фред Уорд, Кристофер Гартин, Хелен Шэйвер, Марчело Туберт, Майкл Гросс, Томас Росалес, Хосе Росарио

О фильме:
Гигантские черви «грабоиды» возвращаются, чтобы превратить Землю в большой шведский стол. Пока что древние хищники из прекембрийского периода довольствуются случайными странниками и рабочими, оказавшимися в мексиканской пустыне. Но аппетиты тварей растут с каждым днем. Бизнесмен Карлос Ортега решает положить конец беспределу гигантских червей и отправляется в штат Невада на поиски Эрла Бассета, того самого смельчака, которому удалось убить нескольких червей…



Страна: США
Продолжительность: 01:39:28
Перевод: профессиональный (дублированный) ТВ-3

Файл
Кодек: H264
Видео: 9 800 kb/s, 1280x694, 23.976fps
Звук: ac3, 48000 Hz, stereo, 192 kb/s
Субтитры: русские

MediaInfo
General
Unique ID : 222666220685681368849167022636365677803 (0xA783F44698918E7EA3969CBF27AA84EB)
Complete name : d:DownloadsДрожь земли Коллекция BDRip 720p2. Дрожь земли 2. Повторный удар.BDRip.720p.mkv
Format : Matroska
Format version : Version 4 / Version 2
File size : 6.94 GiB
Duration : 1 h 39 min
Overall bit rate : 9 988 kb/s
Encoded date : UTC 2020-07-14 14:26:35
Writing application : mkvmerge v8.3.0 ('Over the Horizon') 64bit
Writing library : libebml v1.3.1 + libmatroska v1.4.2

Video
ID : 1
Format : AVC
Format/Info : Advanced Video Codec
Format profile : [email protected]
Format settings : CABAC / 8 Ref Frames
Format settings, CABAC : Yes
Format settings, ReFrames : 8 frames
Codec ID : V_MPEG4/ISO/AVC
Duration : 1 h 39 min
Bit rate : 9 800 kb/s
Width : 1 280 pixels
Height : 694 pixels
Display aspect ratio : 1.85:1
Frame rate mode : Constant
Frame rate : 23.976 (24000/1001) FPS
Color space : YUV
Chroma subsampling : 4:2:0
Bit depth : 8 bits
Scan type : Progressive
Bits/(Pixel*Frame) : 0.460
Stream size : 6.80 GiB (98%)
Writing library : x264 core 130 r2273 b3065e6
Encoding settings : cabac=1 / ref=8 / deblock=1:-3:-3 / analyse=0x3:0x133 / me=umh / subme=11 / psy=1 / psy_rd=1.00:0.20 / mixed_ref=1 / me_range=48 / chroma_me=1 / trellis=2 / 8x8dct=1 / cqm=0 / deadzone=21,11 / fast_pskip=0 / chroma_qp_offset=-3 / threads=12 / lookahead_threads=2 / sliced_threads=0 / nr=0 / decimate=0 / interlaced=0 / bluray_compat=0 / constrained_intra=0 / bframes=8 / b_pyramid=2 / b_adapt=2 / b_bias=0 / direct=3 / weightb=1 / open_gop=0 / weightp=2 / keyint=240 / keyint_min=23 / scenecut=40 / intra_refresh=0 / rc=2pass / mbtree=0 / bitrate=9800 / ratetol=1.0 / qcomp=0.60 / qpmin=0 / qpmax=69 / qpstep=4 / cplxblur=20.0 / qblur=0.5 / ip_ratio=1.40 / pb_ratio=1.30 / aq=1:1.00
Default : Yes
Forced : No

Audio
ID : 2
Format : AC-3
Format/Info : Audio Coding 3
Codec ID : A_AC3
Duration : 1 h 39 min
Bit rate mode : Constant
Bit rate : 192 kb/s
Channel(s) : 2 channels
Channel positions : Front: L R
Sampling rate : 48.0 kHz
Frame rate : 31.250 FPS (1536 SPF)
Bit depth : 16 bits
Compression mode : Lossy
Stream size : 137 MiB (2%)
Language : Russian
Service kind : Complete Main
Default : Yes
Forced : No

Text
ID : 3
Format : UTF-8
Codec ID : S_TEXT/UTF8
Codec ID/Info : UTF-8 Plain Text
Duration : 1 h 37 min
Bit rate : 69 b/s
Count of elements : 970
Stream size : 49.6 KiB (0%)
Language : Russian
Default : No
Forced : No

Menu
00:00:00.000 : en:Chapter 01
00:03:46.851 : en:Chapter 02
00:09:51.966 : en:Chapter 03
00:19:11.692 : en:Chapter 04
00:25:12.761 : en:Chapter 05
00:31:29.387 : en:Chapter 06
00:41:07.631 : en:Chapter 07
00:57:19.436 : en:Chapter 08
01:04:32.743 : en:Chapter 09
01:12:43.776 : en:Chapter 10
01:15:43.539 : en:Chapter 11
01:20:47.133 : en:Chapter 12
01:25:18.905 : en:Chapter 13
01:27:41.923 : en:Chapter 14
01:32:41.556 : en:Chapter 15
01:35:44.864 : en:Chapter 16
Дрожь земли 3 / Tremors 3: Back to Perfection (2001) BDRip 720p | D
Информация о фильме
Название: Дрожь земли 3
Оригинальное название: Tremors 3: Back to Perfection
Год выхода: 2001
Жанр: Фантастика, приключения, боевик, комедия
Режиссер: Брент Мэддок
В ролях: Майкл Гросс, Шоун Кристиан, Сьюзэн Чуэнг, Шарлотта Стюарт, Ариана Ричардс, Тони Дженаро, Бэрри Ливингстон, Джон Паппас, Роберт Джейн, Билли Рик, Келли Коннелл, Мэтью Сет Уилсон, Джейсон Хопкинс, Лорна Скотт, Мэри Гросс, Елена Саагун, Джеви Мулеро, Диего Галаньи

О фильме:
Они спали целых 200 лет. Но теперь они проснулись, и им очень хочется есть. И, надо заметить, голод у них за два века развился нешуточный! Подземные твари вылезают на поверхность и отправляются в путешествие по просторам Невады в поисках своего завтрака. На пути прожорливых монстров оказывается знакомый нам городок под скромным названием «Совершенство». Но здесь уже готовы к «приему» ползучих людоедов! Признанный специалист по выживанию и профессиональный истребитель страшных хищников, Берт Гаммер, успел обзавестись огромным арсеналом всевозможного стрелкового оружия, различной взрывчатки и готов к бою на все сто!



Страна: США
Продолжительность: 01:43:36
Перевод: профессиональный (дублированный) ТВ-3

Файл
Кодек: H264
Видео: 7 000 kb/s, 1280x694, 23.976fps
Звук: ac3, 48000 Hz, stereo, 192 kb/s
Субтитры: русские

MediaInfo
General
Unique ID : 218898578639989956159740134291982388620 (0xA4AE552E5C4DFDD8B601A65E814E0D8C)
Complete name : d:DownloadsДрожь земли Коллекция BDRip 720p3. Дрожь земли 3.2001.BDRip.720p.mkv
Format : Matroska
Format version : Version 4 / Version 2
File size : 5.20 GiB
Duration : 1 h 43 min
Overall bit rate : 7 191 kb/s
Encoded date : UTC 2020-07-14 14:28:58
Writing application : mkvmerge v8.3.0 ('Over the Horizon') 64bit
Writing library : libebml v1.3.1 + libmatroska v1.4.2

Video
ID : 1
Format : AVC
Format/Info : Advanced Video Codec
Format profile : [email protected]
Format settings : CABAC / 8 Ref Frames
Format settings, CABAC : Yes
Format settings, ReFrames : 8 frames
Codec ID : V_MPEG4/ISO/AVC
Duration : 1 h 43 min
Bit rate : 7 000 kb/s
Width : 1 280 pixels
Height : 694 pixels
Display aspect ratio : 1.85:1
Frame rate mode : Constant
Frame rate : 23.976 (24000/1001) FPS
Color space : YUV
Chroma subsampling : 4:2:0
Bit depth : 8 bits
Scan type : Progressive
Bits/(Pixel*Frame) : 0.329
Stream size : 5.06 GiB (97%)
Writing library : x264 core 130 r2273 b3065e6
Encoding settings : cabac=1 / ref=8 / deblock=1:-3:-3 / analyse=0x3:0x133 / me=umh / subme=11 / psy=1 / psy_rd=1.00:0.20 / mixed_ref=1 / me_range=48 / chroma_me=1 / trellis=2 / 8x8dct=1 / cqm=0 / deadzone=21,11 / fast_pskip=0 / chroma_qp_offset=-3 / threads=12 / lookahead_threads=2 / sliced_threads=0 / nr=0 / decimate=0 / interlaced=0 / bluray_compat=0 / constrained_intra=0 / bframes=9 / b_pyramid=2 / b_adapt=2 / b_bias=0 / direct=3 / weightb=1 / open_gop=0 / weightp=2 / keyint=240 / keyint_min=23 / scenecut=40 / intra_refresh=0 / rc=2pass / mbtree=0 / bitrate=7000 / ratetol=1.0 / qcomp=0.60 / qpmin=0 / qpmax=69 / qpstep=4 / cplxblur=20.0 / qblur=0.5 / ip_ratio=1.40 / pb_ratio=1.30 / aq=1:1.00
Default : Yes
Forced : Yes

Audio
ID : 2
Format : AC-3
Format/Info : Audio Coding 3
Codec ID : A_AC3
Duration : 1 h 43 min
Bit rate mode : Constant
Bit rate : 192 kb/s
Channel(s) : 2 channels
Channel positions : Front: L R
Sampling rate : 48.0 kHz
Frame rate : 31.250 FPS (1536 SPF)
Bit depth : 16 bits
Compression mode : Lossy
Stream size : 142 MiB (3%)
Language : Russian
Service kind : Complete Main
Default : Yes
Forced : No

Text
ID : 3
Format : UTF-8
Codec ID : S_TEXT/UTF8
Codec ID/Info : UTF-8 Plain Text
Duration : 1 h 42 min
Bit rate : 81 b/s
Count of elements : 1194
Stream size : 61.0 KiB (0%)
Language : Russian
Default : No
Forced : No

Menu
00:00:00.000 : en:Chapter 01
00:05:46.387 : en:Chapter 02
00:09:37.410 : en:Chapter 03
00:21:05.013 : en:Chapter 04
00:26:47.230 : en:Chapter 05
00:29:31.352 : en:Chapter 06
00:33:31.551 : en:Chapter 07
00:38:58.627 : en:Chapter 08
00:45:45.868 : en:Chapter 09
00:49:36.098 : en:Chapter 10
00:53:54.648 : en:Chapter 11
01:00:18.364 : en:Chapter 12
01:08:55.673 : en:Chapter 13
01:17:39.029 : en:Chapter 14
01:23:12.112 : en:Chapter 15
01:30:19.997 : en:Chapter 16
01:34:25.451 : en:Chapter 17
01:39:29.588 : en:Chapter 18
Дрожь земли 4: Легенда начинается / Tremors 4: The Legend Begins (2004) BDRip 720p | D
Информация о фильме
Название: Дрожь земли 4: Легенда начинается
Оригинальное название: Tremors 4: The Legend Begins
Год выхода: 2004
Жанр: Фантастика, приключения, боевик, комедия
Режиссер: С.С. Уилсон
В ролях: Майкл Гросс, Сара Ботсфорд, Билли Драго, Брент Роам, Аугуст Шелленберг, Дж.Э. Фримен, Ло Минг, Лидия Лук, Сэм Ли, Нил Копит

О фильме:
После того как жителей отдаленного городка в штате Невада стал безжалостно истреблять невидимый враг, владелец копей Хайрем Гаммер нанимает лучшего стрелка на Диком Западе по кличке Келли Черная Рука, чтобы тот расправился со зловещими существами, оставляющими уважаемого бизнесмена без прибыли!

Надо заметить, что мистер Гаммер является прапрадедом Берта Гаммера — отважного охотника и эксперта по истреблению прожорливых подземных хищников. Так что, как Вы, наверное, уже догадались, кровопролитных схваток с огромными плотоядными червями теперь не избежать!



Страна: США
Продолжительность: 01:43:36
Перевод: профессиональный (дублированный) ТВ-3

Файл
Кодек: H264
Видео: 9 000 kb/s, 1280x694, 23.976fps
Звук: ac3, 48000 Hz, stereo, 192 kb/s
Субтитры: русские

MediaInfo
General
Unique ID : 245862465035297133571181017054025151979 (0xB8F7636BA44E6E92B1C3190DF9A0F5EB)
Complete name : d:DownloadsДрожь земли Коллекция BDRip 720p4. Дрожь земли 4. Легенда начинается.2004.BDRip.720p.mkv
Format : Matroska
Format version : Version 4 / Version 2
File size : 6.48 GiB
Duration : 1 h 40 min
Overall bit rate : 9 186 kb/s
Encoded date : UTC 2020-07-14 14:30:47
Writing application : mkvmerge v8.3.0 ('Over the Horizon') 64bit
Writing library : libebml v1.3.1 + libmatroska v1.4.2

Video
ID : 1
Format : AVC
Format/Info : Advanced Video Codec
Format profile : [email protected]
Format settings : CABAC / 8 Ref Frames
Format settings, CABAC : Yes
Format settings, ReFrames : 8 frames
Codec ID : V_MPEG4/ISO/AVC
Duration : 1 h 40 min
Bit rate : 9 000 kb/s
Width : 1 280 pixels
Height : 694 pixels
Display aspect ratio : 1.85:1
Frame rate mode : Constant
Frame rate : 23.976 (24000/1001) FPS
Color space : YUV
Chroma subsampling : 4:2:0
Bit depth : 8 bits
Scan type : Progressive
Bits/(Pixel*Frame) : 0.423
Stream size : 6.34 GiB (98%)
Writing library : x264 core 130 r2273 b3065e6
Encoding settings : cabac=1 / ref=8 / deblock=1:-3:-3 / analyse=0x3:0x133 / me=umh / subme=11 / psy=1 / psy_rd=1.00:0.20 / mixed_ref=1 / me_range=48 / chroma_me=1 / trellis=2 / 8x8dct=1 / cqm=0 / deadzone=21,11 / fast_pskip=0 / chroma_qp_offset=-3 / threads=12 / lookahead_threads=3 / sliced_threads=0 / nr=0 / decimate=0 / interlaced=0 / bluray_compat=0 / constrained_intra=0 / bframes=10 / b_pyramid=2 / b_adapt=2 / b_bias=0 / direct=3 / weightb=1 / open_gop=0 / weightp=2 / keyint=240 / keyint_min=23 / scenecut=40 / intra_refresh=0 / rc=2pass / mbtree=0 / bitrate=9000 / ratetol=1.0 / qcomp=0.60 / qpmin=0 / qpmax=69 / qpstep=4 / cplxblur=20.0 / qblur=0.5 / ip_ratio=1.40 / pb_ratio=1.30 / aq=1:1.00
Default : Yes
Forced : No

Audio
ID : 3
Format : AC-3
Format/Info : Audio Coding 3
Codec ID : A_AC3
Duration : 1 h 40 min
Bit rate mode : Constant
Bit rate : 192 kb/s
Channel(s) : 2 channels
Channel positions : Front: L R
Sampling rate : 48.0 kHz
Frame rate : 31.250 FPS (1536 SPF)
Bit depth : 16 bits
Compression mode : Lossy
Stream size : 139 MiB (2%)
Language : Russian
Service kind : Complete Main
Default : Yes
Forced : No

Text
ID : 2
Format : UTF-8
Codec ID : S_TEXT/UTF8
Codec ID/Info : UTF-8 Plain Text
Duration : 1 h 40 min
Bit rate : 71 b/s
Count of elements : 991
Stream size : 52.8 KiB (0%)
Language : Russian
Default : No
Forced : No

Menu
00:00:00.000 : en:Chapter 01
00:02:58.178 : en:Chapter 02
00:06:56.165 : en:Chapter 03
00:15:18.375 : en:Chapter 04
00:20:49.081 : en:Chapter 05
00:27:55.090 : en:Chapter 06
00:33:18.204 : en:Chapter 07
00:37:07.642 : en:Chapter 08
00:42:50.067 : en:Chapter 09
00:47:30.472 : en:Chapter 10
00:51:53.568 : en:Chapter 11
00:58:33.760 : en:Chapter 12
01:05:15.036 : en:Chapter 13
01:10:24.720 : en:Chapter 14
01:14:52.112 : en:Chapter 15
01:19:58.752 : en:Chapter 16
01:24:42.494 : en:Chapter 17
01:29:23.149 : en:Chapter 18
01:34:44.470 : en:Chapter 19
01:37:58.330 : en:Chapter 20
Дрожь земли 5: Кровное родство / Tremors 5: Bloodlines (2015) BDRip 720p | D
Информация о фильме
Название: Дрожь земли 5: Кровное родство
Оригинальное название: Tremors 5: Bloodlines
Год выхода: 2015
Жанр: Фантастика, приключения, боевик, комедия
Режиссер: Дон Майкл Пол
В ролях: Майкл Гросс, Джейми Кеннеди, Брэндон Оре, Натали Бекер, Эммануэль Кастис, Зак Хендрикз, Дэниэл Дженкс, Лоуренс Джофф, Эрнест Ндлову, Реа Рангака

О фильме:
Гигантские черви-людоеды, известные как Грабоиды, терроризируют жителей Южной Африки. И самое страшное — это то, что Грабоиды со временем превратились в еще более опасных тварей.



Страна: США
Продолжительность: 01:39:02
Перевод: Профессиональный (полное дублирование) [Лицензия iTunes]

Файл
Кодек: H264
Видео: 5 889 kb/s, 1280x720, 23.976fps
Звук: ac3, 48000 Hz, stereo, 192 kb/s
Субтитры: русские (форсированные, полные)

MediaInfo
General
Unique ID : 195665062185151496526168401089000314104 (0x9333B8613543DDD9B2A72D7A561F14F8)
Complete name : d:DownloadsДрожь земли Коллекция BDRip 720p5. Дрожь земли 5. Кровное родство.2015.720p.BDRip.720p.mkv
Format : Matroska
Format version : Version 4 / Version 2
File size : 4.38 GiB
Duration : 1 h 39 min
Overall bit rate : 6 338 kb/s
Encoded date : UTC 2020-07-14 14:33:29
Writing application : mkvmerge v8.3.0 ('Over the Horizon') 64bit
Writing library : libebml v1.3.1 + libmatroska v1.4.2

Video
ID : 1
Format : AVC
Format/Info : Advanced Video Codec
Format profile : [email protected]
Format settings : CABAC / 9 Ref Frames
Format settings, CABAC : Yes
Format settings, ReFrames : 9 frames
Codec ID : V_MPEG4/ISO/AVC
Duration : 1 h 39 min
Bit rate : 5 889 kb/s
Width : 1 280 pixels
Height : 720 pixels
Display aspect ratio : 16:9
Frame rate mode : Constant
Frame rate : 23.976 (24000/1001) FPS
Color space : YUV
Chroma subsampling : 4:2:0
Bit depth : 8 bits
Scan type : Progressive
Bits/(Pixel*Frame) : 0.266
Stream size : 4.07 GiB (93%)
Writing library : x264 core 148 r2579+50 65f745f t_mod_Custom [[email protected] X86_64]
Encoding settings : cabac=1 / ref=9 / deblock=1:-3:-3 / analyse=0x3:0x133 / me=umh / subme=10 / psy=1 / fade_compensate=0.00 / psy_rd=1.05:0.00 / mixed_ref=1 / me_range=48 / chroma_me=1 / trellis=2 / 8x8dct=1 / cqm=0 / deadzone=21,11 / fast_pskip=1 / chroma_qp_offset=-2 / threads=8 / lookahead_threads=1 / sliced_threads=0 / nr=0 / decimate=1 / interlaced=0 / bluray_compat=0 / constrained_intra=0 / fgo=0 / bframes=9 / b_pyramid=2 / b_adapt=2 / b_bias=0 / direct=3 / weightb=1 / open_gop=0 / weightp=2 / keyint=250 / keyint_min=23 / scenecut=40 / intra_refresh=0 / rc_lookahead=150 / rc=crf / mbtree=0 / crf=16.9000 / qcomp=0.70 / qpmin=0:0:0 / qpmax=69:69:69 / qpstep=4 / vbv_maxrate=50000 / vbv_bufsize=62500 / crf_max=0.0 / nal_hrd=none / filler=0 / ip_ratio=1.40 / pb_ratio=1.20 / aq=1:0.70 / aq-sensitivity=10.00 / aq-factor=1.00:1.00:1.00 / aq2=0 / aq3=0
Language : English
Default : Yes
Forced : No

Audio
ID : 2
Format : AC-3
Format/Info : Audio Coding 3
Codec ID : A_AC3
Duration : 1 h 38 min
Bit rate mode : Constant
Bit rate : 448 kb/s
Channel(s) : 6 channels
Channel positions : Front: L C R, Side: L R, LFE
Sampling rate : 48.0 kHz
Frame rate : 31.250 FPS (1536 SPF)
Bit depth : 16 bits
Compression mode : Lossy
Stream size : 317 MiB (7%)
Language : Russian
Service kind : Complete Main
Default : Yes
Forced : No

Text #1
ID : 3
Format : UTF-8
Codec ID : S_TEXT/UTF8
Codec ID/Info : UTF-8 Plain Text
Duration : 1 h 21 min
Bit rate : 0 b/s
Count of elements : 4
Stream size : 175 Bytes (0%)
Title : Forced, iTunes
Language : Russian
Default : Yes
Forced : No

Text #2
ID : 4
Format : UTF-8
Codec ID : S_TEXT/UTF8
Codec ID/Info : UTF-8 Plain Text
Duration : 1 h 35 min
Bit rate : 81 b/s
Count of elements : 1083
Stream size : 57.2 KiB (0%)
Title : iTunes
Language : Russian
Default : No
Forced : No

Menu
00:00:00.000 : en:Chapter 1
00:06:52.537 : en:Chapter 2
00:12:43.179 : en:Chapter 3
00:17:19.247 : en:Chapter 4
00:21:48.724 : en:Chapter 5
00:26:34.426 : en:Chapter 6
00:31:01.777 : en:Chapter 7
00:36:38.905 : en:Chapter 8
00:39:13.309 : en:Chapter 9
00:46:36.919 : en:Chapter 10
00:52:46.038 : en:Chapter 11
00:58:57.534 : en:Chapter 12
01:04:00.587 : en:Chapter 13
01:08:57.967 : en:Chapter 14
01:13:14.974 : en:Chapter 15
01:16:14.445 : en:Chapter 16
01:21:47.027 : en:Chapter 17
01:27:58.857 : en:Chapter 18
01:31:51.756 : en:Chapter 19
01:34:11.729 : en:Chapter 20
Дрожь земли 6 / Tremors: A Cold Day in Hell (2018) BDRip 720p | D
Информация о фильме
Название: Дрожь земли 6
Оригинальное название: Tremors: A Cold Day in Hell
Год выхода: 2018
Жанр: Фантастика, приключения, боевик, комедия
Режиссер: Дон Майкл Пол
В ролях: Майкл Гросс, Джейми Кеннеди, Таня ван Граан, Джессика Энсти, Грег Крик, Стефани Шилдкнект, Дженна Аптон, Роб ван Вуурен, Эдриэнн Пирс, Поль дю Туа

О фильме:
Берт Гаммер и его сын Трэвис Уэлкер отправляются в Канаду, чтобы расследовать серию атак гигантских червей, и оказываются среди грабоидов. Берт начинает подозревать, что военные пытаются приспособить подземных монстров для своих нужд, но тут дело принимает неожиданный оборот: один из грабоидов отравляет его. Единственное спасение — сделать антидот из свежего яда, но для этого надо подоить грабоида.



Страна: США, ЮАР
Продолжительность: 01:37:59
Перевод: профессиональный (дублированный) ТВ-3

Файл
Кодек: H264
Видео: 5 000 kb/s, 1280x720, 23.976fps
Звук: AC3, 48000Hz, 6ch, 384kbps
Субтитры: русские (forced)

MediaInfo
General
Unique ID : 223518353249072864343396235530846815955 (0xA82811A7A4241D94978F2FE3827F46D3)
Complete name : d:DownloadsДрожь земли Коллекция BDRip 720p6. Дрожь земли 6.2018.BDRip.720p.mkv
Format : Matroska
Format version : Version 4 / Version 2
File size : 3.60 GiB
Duration : 1 h 37 min
Overall bit rate : 5 262 kb/s
Encoded date : UTC 2020-07-14 14:19:51
Writing application : mkvmerge v8.3.0 ('Over the Horizon') 64bit
Writing library : libebml v1.3.1 + libmatroska v1.4.2 / Lavf58.26.100

Video
ID : 1
Format : AVC
Format/Info : Advanced Video Codec
Format profile : [email protected]
Format settings : CABAC / 5 Ref Frames
Format settings, CABAC : Yes
Format settings, ReFrames : 5 frames
Codec ID : V_MPEG4/ISO/AVC
Duration : 1 h 37 min
Bit rate : 5 000 kb/s
Width : 1 280 pixels
Height : 720 pixels
Display aspect ratio : 16:9
Frame rate mode : Constant
Frame rate : 23.976 (24000/1001) FPS
Color space : YUV
Chroma subsampling : 4:2:0
Bit depth : 8 bits
Scan type : Progressive
Bits/(Pixel*Frame) : 0.226
Stream size : 3.34 GiB (93%)
Writing library : x264 core 157 r2932
Encoding settings : cabac=1 / ref=5 / deblock=1:-1:-1 / analyse=0x3:0x113 / me=umh / subme=9 / psy=1 / psy_rd=1.00:0.00 / mixed_ref=0 / me_range=16 / chroma_me=1 / trellis=1 / 8x8dct=1 / cqm=0 / deadzone=21,11 / fast_pskip=1 / chroma_qp_offset=-2 / threads=6 / lookahead_threads=1 / sliced_threads=0 / nr=0 / decimate=1 / interlaced=0 / bluray_compat=0 / constrained_intra=0 / bframes=3 / b_pyramid=0 / b_adapt=2 / b_bias=0 / direct=3 / weightb=1 / open_gop=0 / weightp=2 / keyint=239 / keyint_min=23 / scenecut=40 / intra_refresh=0 / rc_lookahead=50 / rc=abr / mbtree=1 / bitrate=5000 / ratetol=1.0 / qcomp=0.60 / qpmin=10 / qpmax=69 / qpstep=4 / vbv_maxrate=60500 / vbv_bufsize=24000 / nal_hrd=none / filler=0 / frame-packing=0 / ip_ratio=1.40 / aq=3:1.00
Language : English
Default : Yes
Forced : No

Audio
ID : 2
Format : AC-3
Format/Info : Audio Coding 3
Codec ID : A_AC3
Duration : 1 h 37 min
Bit rate mode : Constant
Bit rate : 384 kb/s
Channel(s) : 6 channels
Channel positions : Front: L C R, Side: L R, LFE
Sampling rate : 48.0 kHz
Frame rate : 31.250 FPS (1536 SPF)
Bit depth : 16 bits
Compression mode : Lossy
Stream size : 269 MiB (7%)
Title : DUB | ТВ3
Language : Russian
Service kind : Complete Main
Default : Yes
Forced : No

Text
ID : 3
Format : UTF-8
Codec ID : S_TEXT/UTF8
Codec ID/Info : UTF-8 Plain Text
Duration : 39 min 28 s
Bit rate : 2 b/s
Count of elements : 9
Stream size : 742 Bytes (0%)
Title : Forced
Language : Russian
Default : Yes
Forced : No

Menu
00:00:00.000 : :Chapter 1
00:04:18.383 : :Chapter 2
00:10:18.242 : :Chapter 3
00:14:55.269 : :Chapter 4
00:19:17.906 : :Chapter 5
00:24:28.800 : :Chapter 6
00:31:32.473 : :Chapter 7
00:37:49.558 : :Chapter 8
00:40:04.193 : :Chapter 9
00:47:55.747 : :Chapter 10
00:51:02.017 : :Chapter 11
00:56:11.326 : :Chapter 12
01:02:27.493 : :Chapter 13
01:06:31.570 : :Chapter 14
01:11:22.194 : :Chapter 15
01:17:28.769 : :Chapter 16
01:22:39.704 : :Chapter 17
01:26:15.211 : :Chapter 18
01:28:33.975 : :Chapter 19
01:33:30.688 : :Chapter 20
 

Вложения

  • 78,6 KB Просмотры: 0
    Личеров 0
    Сидеров 0
    Файлов 6
    Объем 30,8 GB

Привет!

Мы группа людей которые решили помочь другим в решении их проблем, а так же пользователям с поиском самых свежих и качественных инфопродуктов. За 4 с небольшим месяца мы создали этот форум на который заходят ежедневно тысячи человек и посещаемость постоянно растёт. Мы создали панель лицензирования для защиты PHP скриптов от воровства и SEO панель для мониторинга наших сайтов и выбора верной стратегии их развития. Мы надеемся что то что мы создали пригодится Вам и возможно Вы поможете нам развиваться и совершенствоваться вместе с Вами.

Статистика форума

Темы
406.605
Сообщения
465.025
Пользователи
84.386
Новый пользователь
Hellloyy

Приложения форума для iOS и Android


У ркн там нет власти ;)
Приватные разговоры
Помощь Пользователи
    Вы не присоединились ни к одной комнате.