За последнюю неделю опубликовано 62 новых материалов.
Инструкция новичку Путеводитель по форуму Прокси для Telegram Показать подсказки , это бомба!

Скачать Дракон: История Брюса Ли / Dragon: The Bruce Lee Story (1993) BDRip 720p от SuperMin | D, P бесплатно через торрент

  • Поучаствуй (в качестве покупателя) в любых пяти совместных покупках (кроме завершённых и "Моментальных") и получи группу "Новичок" навсегда -> ссылка на раздел
  • Получай до 480 рублей за каждого приглашенного пользователя!
    представляем Вам очередное расширение партнерской программы, подробности описаны тут -> ссылка
  • 90% материалов доступно к скачиванию после простой регистрации!
    Если же ты хочешь скачивать материалы без требования оставлять отзывы то получи группу "Новичок", 10 способов повышения описаны тут -> ссылка
  • К сожалению количество битых ссылок растет и мы уже не можем их оперативно восстанавливать поэтому просим помощи у каждого нашего пользователя.
    С сегодняшнего дня, за каждую восстановленную ссылку мы заплатим Вам.
    Подробнее тут -> ссылка
  • Перенесем твои заслуги с другого ресурса!
    Мы понимаем как сложно прокачивать аккаунты на форумах, вроде раскачал аккаунт, а тут появляется ресурс в 100 раз круче но тоже с системой прокачки и снова качать аккаунт...
    Предлагаем вам перенести Ваши заслуги на другом подобном ресурсе к нам.
    Подробности описаны тут -> ссылка
  • Вы можете получать по 2.5% с каждой покупки и продажи на маркете! Подробности в теме Партнёрская программа
Если Вы не хотите скачивать, Вы всегда можетепосмотретьонлайн, просто нажмите кнопку ниже :

Открыть плеер

Torrent_Bot

Торрент-Бот
Бот форума
4 Окт 2016
92
160
20



Информация о фильме
Название: Дракон: История Брюса Ли
Оригинальное название: Dragon: The Bruce Lee Story
Жанр: Боевик, драма, биография
Режиссер: Роб Коэн
В ролях: Джейсон Скотт Ли, Лорен Холли, Роберт Вагнер, Майкл Лернд, Нэнси Кван, Кэй Тонг Лим, Рик Янг, Лоюн Ван, Стерлинг Мейсер мл., Свен-Оле Торсен


Биографическая драма, рассказывающая о жизни легендарного Брюса Ли, погибшего таинственным образом. Фильм снят по воспоминаниям жены Брюса Линды Ли Колдуэлл. Создатели ленты попытались показать Ли как человека, преодолевающего препятствия, неуклонно идущего к цели.
Мистика и реальность переплетаются друг с другом, и Брюс Ли, великий «маленький дракон», вступает в бой не только с окружающей действительностью, но и с демоном преследующих его кошмаров.




Страна: США
Студия: Universal Pictures
Продолжительность: 01:59:57
Перевод: Дубляж + профессиональный (многоголосый закадровый)

Файл
Кодек: H.264
Качество: BDRip 720p
Видео: 1280х544 (2.35:1), 2856 Kbps, 23.976 fps
Звук: Русский (AC-3, 2ch, 192 kbps) Дубляж
Русский (AC-3, 6ch, 448 kbps) R5 "Lizard"
Русский (AC-3, 2ch, 192 kbps) СТС
Английский (AC-3, 6ch, 448 kbps)
Субтитры: русские, английские





MI
x264 [info]: frame I:1328 Avg QP:17.16 size: 97745
x264 [info]: frame P:37866 Avg QP:18.16 size: 34101
x264 [info]: frame B:133380 Avg QP:20.64 size: 8609
x264 [info]: consecutive B-frames: 2.0% 2.6% 8.0% 18.9% 23.7% 38.7% 4.1% 1.4% 0.3% 0.3%

General
Unique ID : 105976110372652711120061432732462162467 (0x4FBA41A5C41623BA246B5991153D2223)
Complete name : F:ФИЛЬМЫРУТОРДракон. История Брюса Ли. BDRip 720p.mkv
Format : Matroska
Format version : Version 4
File size : 3.48 GiB
Duration : 1 h 59 min
Overall bit rate : 4 148 kb/s
Movie name : Дракон: История Брюса Ли / Dragon: The Bruce Lee Story (1993) - #LORDKILL#
Encoded date : UTC 2020-05-14 03:31:00
Writing application : mkvmerge v32.0.0 ('Astral Progressions') 64-bit
Writing library : libebml v1.3.7 + libmatroska v1.5.0
Attachments : poster.jpg / poster 2.jpg

Video
ID : 1
Format : AVC
Format/Info : Advanced Video Codec
Format profile : [email protected]
Format settings : CABAC / 12 Ref Frames
Format settings, CABAC : Yes
Format settings, Reference : 12 frames
Codec ID : V_MPEG4/ISO/AVC
Duration : 1 h 59 min
Bit rate : 2 856 kb/s
Width : 1 280 pixels
Height : 544 pixels
Display aspect ratio : 2.35:1
Frame rate mode : Constant
Frame rate : 23.976 (24000/1001) FPS
Color space : YUV
Chroma subsampling : 4:2:0
Bit depth : 8 bits
Scan type : Progressive
Bits/(Pixel*Frame) : 0.171
Stream size : 2.39 GiB (69%)
Writing library : x264 core 159 r2991 1771b55
Encoding settings : cabac=1 / ref=12 / deblock=1:-2:-2 / analyse=0x3:0x113 / me=umh / subme=10 / psy=1 / psy_rd=1.00:0.20 / mixed_ref=1 / me_range=32 / chroma_me=1 / trellis=2 / 8x8dct=1 / cqm=0 / deadzone=21,11 / fast_pskip=0 / chroma_qp_offset=-3 / threads=12 / lookahead_threads=2 / sliced_threads=0 / nr=0 / decimate=1 / interlaced=0 / bluray_compat=0 / constrained_intra=0 / bframes=9 / b_pyramid=2 / b_adapt=2 / b_bias=0 / direct=1 / weightb=1 / open_gop=0 / weightp=2 / keyint=240 / keyint_min=23 / scenecut=40 / intra_refresh=0 / rc=crf / mbtree=0 / crf=18.5 / qcomp=0.60 / qpmin=0 / qpmax=69 / qpstep=4 / ip_ratio=1.40 / pb_ratio=1.30 / aq=1:1.00
Language : English
Default : Yes
Forced : No

Audio #1
ID : 2
Format : AC-3
Format/Info : Audio Coding 3
Commercial name : Dolby Digital
Codec ID : A_AC3
Duration : 1 h 59 min
Bit rate mode : Constant
Bit rate : 192 kb/s
Channel(s) : 2 channels
Channel layout : L R
Sampling rate : 48.0 kHz
Frame rate : 31.250 FPS (1536 SPF)
Compression mode : Lossy
Stream size : 165 MiB (5%)
Title : Дубляж
Language : Russian
Service kind : Complete Main
Default : Yes
Forced : No

Audio #2
ID : 3
Format : AC-3
Format/Info : Audio Coding 3
Commercial name : Dolby Digital
Codec ID : A_AC3
Duration : 1 h 59 min
Bit rate mode : Constant
Bit rate : 448 kb/s
Channel(s) : 6 channels
Channel layout : L R C LFE Ls Rs
Sampling rate : 48.0 kHz
Frame rate : 31.250 FPS (1536 SPF)
Compression mode : Lossy
Stream size : 384 MiB (11%)
Title : MVO (R5 "Lizard")
Language : Russian
Service kind : Complete Main
Default : No
Forced : No

Audio #3
ID : 4
Format : AC-3
Format/Info : Audio Coding 3
Commercial name : Dolby Digital
Codec ID : A_AC3
Duration : 1 h 59 min
Bit rate mode : Constant
Bit rate : 192 kb/s
Channel(s) : 2 channels
Channel layout : L R
Sampling rate : 48.0 kHz
Frame rate : 31.250 FPS (1536 SPF)
Compression mode : Lossy
Stream size : 165 MiB (5%)
Title : MVO (СТС)
Language : Russian
Service kind : Complete Main
Default : No
Forced : No

Audio #4
ID : 5
Format : AC-3
Format/Info : Audio Coding 3
Commercial name : Dolby Digital
Codec ID : A_AC3
Duration : 1 h 59 min
Bit rate mode : Constant
Bit rate : 448 kb/s
Channel(s) : 6 channels
Channel layout : L R C LFE Ls Rs
Sampling rate : 48.0 kHz
Frame rate : 31.250 FPS (1536 SPF)
Compression mode : Lossy
Stream size : 384 MiB (11%)
Language : English
Service kind : Complete Main
Default : No
Forced : No

Text #1
ID : 6
Format : UTF-8
Codec ID : S_TEXT/UTF8
Codec ID/Info : UTF-8 Plain Text
Duration : 1 h 6 min
Bit rate : 2 b/s
Count of elements : 23
Stream size : 1 014 Bytes (0%)
Title : Forced
Language : Russian
Default : No
Forced : Yes

Text #2
ID : 7
Format : UTF-8
Codec ID : S_TEXT/UTF8
Codec ID/Info : UTF-8 Plain Text
Duration : 1 h 51 min
Bit rate : 73 b/s
Count of elements : 1153
Stream size : 60.0 KiB (0%)
Title : BD
Language : Russian
Default : Yes
Forced : No

Text #3
ID : 8
Format : UTF-8
Codec ID : S_TEXT/UTF8
Codec ID/Info : UTF-8 Plain Text
Duration : 1 h 56 min
Bit rate : 67 b/s
Count of elements : 1001
Stream size : 57.8 KiB (0%)
Language : Russian
Default : No
Forced : No

Text #4
ID : 9
Format : PGS
Muxing mode : zlib
Codec ID : S_HDMV/PGS
Codec ID/Info : Picture based subtitle format used on BDs/HD-DVDs
Duration : 1 h 54 min
Bit rate : 33.1 kb/s
Count of elements : 2956
Stream size : 27.1 MiB (1%)
Title : ENG
Language : English
Default : No
Forced : No

Menu
00:00:00.000 : Глава 01
00:05:00.000 : Глава 02
00:10:00.000 : Глава 03
00:15:00.000 : Глава 04
00:20:00.000 : Глава 05
00:25:00.000 : Глава 06
00:30:00.000 : Глава 07
00:35:00.000 : Глава 08
00:40:00.000 : Глава 09
00:45:00.000 : Глава 10
00:50:00.000 : Глава 11
00:55:00.000 : Глава 12
01:00:00.000 : Глава 13
01:05:00.000 : Глава 14
01:10:00.000 : Глава 15
01:15:00.000 : Глава 16
01:20:00.000 : Глава 17
01:25:00.000 : Глава 18
01:30:00.000 : Глава 19
01:35:00.000 : Глава 20
01:40:00.000 : Глава 21
01:45:00.000 : Глава 22
01:50:00.000 : Глава 23
01:55:00.000 : Глава 24
Скриншоты

 

Вложения

  • 18,5 KB Просмотры: 0
    Личеров 0
    Сидеров 0
    Файлов 1
    Объем 3,5 GB

Привет!

Мы группа людей которые решили помочь другим в решении их проблем, а так же пользователям с поиском самых свежих и качественных инфопродуктов. За 4 с небольшим месяца мы создали этот форум на который заходят ежедневно тысячи человек и посещаемость постоянно растёт. Мы создали панель лицензирования для защиты PHP скриптов от воровства и SEO панель для мониторинга наших сайтов и выбора верной стратегии их развития. Мы надеемся что то что мы создали пригодится Вам и возможно Вы поможете нам развиваться и совершенствоваться вместе с Вами.

Статистика форума

Темы
406.657
Сообщения
465.112
Пользователи
84.665
Новый пользователь
koleg

Приложения форума для iOS и Android


У ркн там нет власти ;)
Приватные разговоры
Помощь Пользователи
    Вы не присоединились ни к одной комнате.