За последнюю неделю опубликовано 62 новых материалов.
Инструкция новичку Путеводитель по форуму Прокси для Telegram Показать подсказки , это бомба!

Скачать Дожить до утра / Survive the Night (2020) WEB-DLRip-AVC | Театральная версия | iTunes бесплатно через торрент

  • Поучаствуй (в качестве покупателя) в любых пяти совместных покупках (кроме завершённых и "Моментальных") и получи группу "Новичок" навсегда -> ссылка на раздел
  • Получай до 480 рублей за каждого приглашенного пользователя!
    представляем Вам очередное расширение партнерской программы, подробности описаны тут -> ссылка
  • 90% материалов доступно к скачиванию после простой регистрации!
    Если же ты хочешь скачивать материалы без требования оставлять отзывы то получи группу "Новичок", 10 способов повышения описаны тут -> ссылка
  • К сожалению количество битых ссылок растет и мы уже не можем их оперативно восстанавливать поэтому просим помощи у каждого нашего пользователя.
    С сегодняшнего дня, за каждую восстановленную ссылку мы заплатим Вам.
    Подробнее тут -> ссылка
  • Перенесем твои заслуги с другого ресурса!
    Мы понимаем как сложно прокачивать аккаунты на форумах, вроде раскачал аккаунт, а тут появляется ресурс в 100 раз круче но тоже с системой прокачки и снова качать аккаунт...
    Предлагаем вам перенести Ваши заслуги на другом подобном ресурсе к нам.
    Подробности описаны тут -> ссылка
  • Вы можете получать по 2.5% с каждой покупки и продажи на маркете! Подробности в теме Партнёрская программа
Если Вы не хотите скачивать, Вы всегда можетепосмотретьонлайн, просто нажмите кнопку ниже :

Открыть плеер

Torrent_Bot

Торрент-Бот
Бот форума
4 Окт 2016
92
160
20

Информация о фильме
Название: Дожить до утра
Оригинальное название: Survive the Night
Год выхода: 2020
Жанр: Боевик, триллер
Режиссер: Мэтт Эскандари
В ролях: Чад Майкл Мюррэй, Брюс Уиллис, Ши Бакнер, Тайлер Джон Олсон, Лидия Халл, Равар Элиз Руперт, Натали ДиДонато, Джессика Абрамс, Сара Линн Херман, Жеф Холбрук

О фильме:
В дом Фрэнка, врача, потерявшего лицензию, врываются неизвестные. В ходе перестрелки один из налетчиков получает серьезное ранение. Фрэнк вынужден спасать жизнь преступника, иначе всей семье грозит ужасная смерть... Кто доживет до утра?



Страна: США
Студия: Emmett/Furla/Oasis Films (EFO Films), SSS Entertainment, SSS Film Capital
Продолжительность: 01:29:13
Перевод: Дублированный | iTunes
Субтитры: English

Файл
Формат: Matroska
Качество: WEB-DLRip-AVC | AMZN Version
Видео: 768x384 at 23.976 fps, x264, ~1101 kbps, 0.156 bpp
Аудио: AAC, 2 ch, ~64 kbps - | Русский | -
Формат субтитров: softsub (SRT)

***Релиз от:-=DoMiNo=-

M/I
x264 [info]: frame I:1058 Avg QP:12.53 size: 39484
x264 [info]: frame P:28079 Avg QP:15.76 size: 12607
x264 [info]: frame B:99228 Avg QP:17.60 size: 3405
x264 [info]: consecutive B-frames: 1.9% 2.4% 6.4% 32.4% 15.6% 27.8% 4.9% 3.5% 1.4% 0.7% 0.9% 1.0% 1.1%

General
Format : Matroska
Format version : Version 4
File size : 742 MiB
Duration : 1 h 29 min
Overall bit rate : 1 163 kb/s
Movie name : Дожить до утра.(2020).WEB-DLRip-AVC.[-=DoMiNo=-]
Encoded date : UTC 2020-05-30 15:48:50
Writing application : mkvmerge v47.0.0 ('Black Flag') 64-bit
Writing library : libebml v1.3.10 + libmatroska v1.5.2
Cover : Yes
Attachments : cover.png / cover 2.jpg

Video
ID : 1
Format : AVC
Format/Info : Advanced Video Codec
Format profile : [email protected]
Format settings : CABAC / 12 Ref Frames
Format settings, CABAC : Yes
Format settings, Reference : 12 frames
Codec ID : V_MPEG4/ISO/AVC
Duration : 1 h 29 min
Bit rate : 1 101 kb/s
Width : 768 pixels
Height : 384 pixels
Display aspect ratio : 2.000
Frame rate mode : Constant
Frame rate : 23.976 (24000/1001) FPS
Color space : YUV
Chroma subsampling : 4:2:0
Bit depth : 8 bits
Scan type : Progressive
Bits/(Pixel*Frame) : 0.156
Stream size : 700 MiB (94%)
Title : RIP BY -=DoMiNo=-
Writing library : x264 core 160 r3000 33f9e14
Encoding settings : cabac=1 / ref=12 / deblock=1:-1:-1 / analyse=0x3:0x133 / me=umh / subme=10 / psy=1 / psy_rd=1.00:0.15 / mixed_ref=1 / me_range=32 / chroma_me=1 / trellis=2 / 8x8dct=1 / cqm=0 / deadzone=21,11 / fast_pskip=0 / chroma_qp_offset=-3 / threads=6 / lookahead_threads=1 / sliced_threads=0 / nr=0 / decimate=0 / interlaced=0 / bluray_compat=0 / constrained_intra=0 / bframes=12 / b_pyramid=2 / b_adapt=2 / b_bias=0 / direct=3 / weightb=1 / open_gop=0 / weightp=2 / keyint=250 / keyint_min=23 / scenecut=40 / intra_refresh=0 / rc_lookahead=60 / rc=2pass / mbtree=0 / bitrate=1101 / ratetol=1.0 / qcomp=0.60 / qpmin=0 / qpmax=69 / qpstep=4 / cplxblur=20.0 / qblur=0.5 / vbv_maxrate=50000 / vbv_bufsize=62500 / nal_hrd=none / filler=0 / ip_ratio=1.40 / pb_ratio=1.30 / aq=3:1.00
Language : English
Default : Yes
Forced : No
Color range : Limited
Color primaries : BT.709
Transfer characteristics : BT.709
Matrix coefficients : BT.709

Audio
ID : 2
Format : AAC LC SBR
Format/Info : Advanced Audio Codec Low Complexity with Spectral Band Replication
Commercial name : HE-AAC
Format settings : Implicit
Codec ID : A_AAC-2
Duration : 1 h 29 min
Bit rate : 64.0 kb/s
Channel(s) : 2 channels
Channel layout : L R
Sampling rate : 48.0 kHz
Frame rate : 23.438 FPS (2048 SPF)
Compression mode : Lossy
Stream size : 40.8 MiB (6%)
Title : DUB
Language : Russian
Default : Yes
Forced : No

Text #1
ID : 3
Format : UTF-8
Codec ID : S_TEXT/UTF8
Codec ID/Info : UTF-8 Plain Text
Duration : 1 h 20 min
Bit rate : 34 b/s
Count of elements : 841
Stream size : 20.6 KiB (0%)
Language : English
Default : No
Forced : No

Text #2
ID : 4
Format : UTF-8
Codec ID : S_TEXT/UTF8
Codec ID/Info : UTF-8 Plain Text
Duration : 1 h 22 min
Bit rate : 39 b/s
Count of elements : 1008
Stream size : 23.8 KiB (0%)
Title : SDH
Language : English
Default : No
Forced : No

Menu
00:00:00.000 : en:Глава 01
00:05:30.000 : en:Глава 02
00:11:00.000 : en:Глава 03
00:16:30.000 : en:Глава 04
00:22:00.000 : en:Глава 05
00:27:30.000 : en:Глава 06
00:33:00.000 : en:Глава 07
00:38:30.000 : en:Глава 08
00:44:00.000 : en:Глава 09
00:49:30.000 : en:Глава 10
00:55:00.000 : en:Глава 11
01:00:30.000 : en:Глава 12
01:06:00.000 : en:Глава 13
01:11:30.000 : en:Глава 14
01:17:00.000 : en:Глава 15
01:22:30.000 : en:Глава 16
01:28:00.000 : en:Глава 17
Скриншоты
 

Вложения

  • 30,1 KB Просмотры: 0
    Личеров 0
    Сидеров 0
    Файлов 1
    Объем 742,1 MB

Привет!

Мы группа людей которые решили помочь другим в решении их проблем, а так же пользователям с поиском самых свежих и качественных инфопродуктов. За 4 с небольшим месяца мы создали этот форум на который заходят ежедневно тысячи человек и посещаемость постоянно растёт. Мы создали панель лицензирования для защиты PHP скриптов от воровства и SEO панель для мониторинга наших сайтов и выбора верной стратегии их развития. Мы надеемся что то что мы создали пригодится Вам и возможно Вы поможете нам развиваться и совершенствоваться вместе с Вами.

Статистика форума

Темы
406.656
Сообщения
465.104
Пользователи
84.663
Новый пользователь
monstro911

Приложения форума для iOS и Android


У ркн там нет власти ;)
Приватные разговоры
Помощь Пользователи
    Вы не присоединились ни к одной комнате.