За последнюю неделю опубликовано 62 новых материалов.
Инструкция новичку Путеводитель по форуму Прокси для Telegram Показать подсказки , это бомба!

Скачать Дожить до утра / Survive the Night (2020) WEB-DL 1080p | Расширенная версия | iTunes бесплатно через торрент

  • Поучаствуй (в качестве покупателя) в любых пяти совместных покупках (кроме завершённых и "Моментальных") и получи группу "Новичок" навсегда -> ссылка на раздел
  • Получай до 480 рублей за каждого приглашенного пользователя!
    представляем Вам очередное расширение партнерской программы, подробности описаны тут -> ссылка
  • 90% материалов доступно к скачиванию после простой регистрации!
    Если же ты хочешь скачивать материалы без требования оставлять отзывы то получи группу "Новичок", 10 способов повышения описаны тут -> ссылка
  • К сожалению количество битых ссылок растет и мы уже не можем их оперативно восстанавливать поэтому просим помощи у каждого нашего пользователя.
    С сегодняшнего дня, за каждую восстановленную ссылку мы заплатим Вам.
    Подробнее тут -> ссылка
  • Перенесем твои заслуги с другого ресурса!
    Мы понимаем как сложно прокачивать аккаунты на форумах, вроде раскачал аккаунт, а тут появляется ресурс в 100 раз круче но тоже с системой прокачки и снова качать аккаунт...
    Предлагаем вам перенести Ваши заслуги на другом подобном ресурсе к нам.
    Подробности описаны тут -> ссылка
  • Вы можете получать по 2.5% с каждой покупки и продажи на маркете! Подробности в теме Партнёрская программа
Если Вы не хотите скачивать, Вы всегда можетепосмотретьонлайн, просто нажмите кнопку ниже :

Открыть плеер

Torrent_Bot

Торрент-Бот
Бот форума
4 Окт 2016
92
160
20


Информация о фильме
Название: Дожить до утра
Оригинальное название: Survive the Night
Год выхода: 2020
Цифровой релиз (в России): 29 мая 2020
Жанр: боевик, триллер
Режиссер: Мэтт Эскандари
В ролях: Чад Майкл Мюррэй, Брюс Уиллис, Ши Бакнер, Тайлер Джон Олсон, Лидия Халл, Джессика Абрамс, Равар Элиз Руперт, Сара Линн Херман, Натали ДиДонато, Жеф Холбрук

О фильме:
В дом Фрэнка — врача, потерявшего лицензию — врываются неизвестные. В ходе перестрелки один из налетчиков получает серьезное ранение. Фрэнк вынужден спасать жизнь преступника, иначе всей семье грозит ужасная смерть… Кто доживет до утра?


Страна: США
Продолжительность: 01:26:31
Перевод: Дублированный | iTunes

Файл
Формат: MKV
Кодек: MPEG-4 AVC
Качество: WEB-DL 1080p
Видео: 1918x960, ~ 4 794 kb/s, 8 bits, 25.000 FPS
Аудио #1 (русский): AC-3, 384 kb/s, 6 ch (L R C LFE Ls Rs), 48.0 kHz
Субтитры: отсутствуют
Навигация по главам: есть

Скриншоты


MediaInfo
General
Unique ID : 324072441453101670193384922768624710777 (0xF3CE14F8599BD66F47A497A51FF9F479)
Complete name : [KORSARS]_Survive.the.Night.WEB-DL.1080p.iTunes.mkv
Format : Matroska
Format version : Version 4
File size : 3.13 GiB
Duration : 1 h 26 min
Overall bit rate : 5 180 kb/s
Movie name : [KORSARS]_Survive.the.Night.WEB-DL.1080p.iTunes
Encoded date : UTC 2020-05-29 18:43:12
Writing application : mkvmerge v45.0.0 ('Heaven in Pennies') 64-bit
Writing library : libebml v1.3.10 + libmatroska v1.5.2

Video
ID : 1
Format : AVC
Format/Info : Advanced Video Codec
Format profile : [email protected]
Format settings : CABAC / 4 Ref Frames
Format settings, CABAC : Yes
Format settings, Reference : 4 frames
Codec ID : V_MPEG4/ISO/AVC
Duration : 1 h 26 min
Bit rate : 4 794 kb/s
Width : 1 918 pixels
Height : 960 pixels
Display aspect ratio : 1.998
Frame rate mode : Constant
Frame rate : 25.000 FPS
Color space : YUV
Chroma subsampling : 4:2:0
Bit depth : 8 bits
Scan type : Progressive
Bits/(Pixel*Frame) : 0.104
Stream size : 2.90 GiB (93%)
Language : English
Default : Yes
Forced : No
Color range : Limited
Color primaries : BT.709
Transfer characteristics : BT.709
Matrix coefficients : BT.709

Audio
ID : 2
Format : AC-3
Format/Info : Audio Coding 3
Commercial name : Dolby Digital
Codec ID : A_AC3
Duration : 1 h 26 min
Bit rate mode : Constant
Bit rate : 384 kb/s
Channel(s) : 6 channels
Channel layout : L R C LFE Ls Rs
Sampling rate : 48.0 kHz
Frame rate : 31.250 FPS (1536 SPF)
Compression mode : Lossy
Delay relative to video : -40 ms
Stream size : 238 MiB (7%)
Language : Russian
Service kind : Complete Main
Default : Yes
Forced : No

Menu
00:00:00.000 : ru:Глава 1
00:08:19.600 : ru:Глава 2
00:16:55.240 : ru:Глава 3
00:24:57.840 : ru:Глава 4
00:33:28.600 : ru:Глава 5
00:41:53.680 : ru:Глава 6
00:50:07.799 : ru:Глава 7
00:58:31.319 : ru:Глава 8
01:06:35.719 : ru:Глава 9
01:14:44.918 : ru:Глава 10


 

Вложения

  • 16,6 KB Просмотры: 0
    Личеров 0
    Сидеров 0
    Файлов 1
    Объем 3,1 GB

Привет!

Мы группа людей которые решили помочь другим в решении их проблем, а так же пользователям с поиском самых свежих и качественных инфопродуктов. За 4 с небольшим месяца мы создали этот форум на который заходят ежедневно тысячи человек и посещаемость постоянно растёт. Мы создали панель лицензирования для защиты PHP скриптов от воровства и SEO панель для мониторинга наших сайтов и выбора верной стратегии их развития. Мы надеемся что то что мы создали пригодится Вам и возможно Вы поможете нам развиваться и совершенствоваться вместе с Вами.

Статистика форума

Темы
406.656
Сообщения
465.104
Пользователи
84.659
Новый пользователь
кнунун

Приложения форума для iOS и Android


У ркн там нет власти ;)
Приватные разговоры
Помощь Пользователи
    Вы не присоединились ни к одной комнате.