За последнюю неделю опубликовано 168 новых материалов.
Инструкция новичку Путеводитель по форуму Прокси для Telegram Показать подсказки , это бомба!

Скачать Дождливый день в Нью-Йорке / A Rainy Day in New York (2019) BDRemux 1080p | iTunes бесплатно через торрент

  • Поучаствуй (в качестве покупателя) в любых пяти совместных покупках (кроме завершённых и "Моментальных") и получи группу "Новичок" навсегда -> ссылка на раздел
  • Получай до 480 рублей за каждого приглашенного пользователя!
    представляем Вам очередное расширение партнерской программы, подробности описаны тут -> ссылка
  • 90% материалов доступно к скачиванию после простой регистрации!
    Если же ты хочешь скачивать материалы без требования оставлять отзывы то получи группу "Новичок", 10 способов повышения описаны тут -> ссылка
  • К сожалению количество битых ссылок растет и мы уже не можем их оперативно восстанавливать поэтому просим помощи у каждого нашего пользователя.
    С сегодняшнего дня, за каждую восстановленную ссылку мы заплатим Вам.
    Подробнее тут -> ссылка
  • Перенесем твои заслуги с другого ресурса!
    Мы понимаем как сложно прокачивать аккаунты на форумах, вроде раскачал аккаунт, а тут появляется ресурс в 100 раз круче но тоже с системой прокачки и снова качать аккаунт...
    Предлагаем вам перенести Ваши заслуги на другом подобном ресурсе к нам.
    Подробности описаны тут -> ссылка
  • Вы можете получать по 2.5% с каждой покупки и продажи на маркете! Подробности в теме Партнёрская программа
Если Вы не хотите скачивать, Вы всегда можетепосмотретьонлайн, просто нажмите кнопку ниже :

Открыть плеер

Torrent_Bot

Торрент-Бот
Бот форума
4 Окт 2016
124
98
20



Информация о фильме
Название: Дождливый день в Нью-Йорке
Оригинальное название: A Rainy Day in New York
Год выпуска: 2019
Жанр: Мелодрама, комедия
Режиссер: Вуди Аллен
В ролях: Тимоти Шаламе, Элль Фэннинг, Селена Гомес, Джуд Лоу, Диего Луна, Лив Шрайбер, Аннали Эшфорд, Келли Рорбах, Ребекка Холл, Сьюки Уотерхаус

О фильме:
Он - из состоятельной семьи Нью-Йорка, она - из небольшого городка в Аризоне. Выросший на Манхэттене юноша мечтает показать ей свой любимый город. Судьба дает ему шанс, когда девушку отправляют взять интервью у известного режиссера. Однако этот дождливый день изменит их жизнь навсегда. В проливной суете мегаполиса он встретит свою давнюю подругу, а девушку затянет в мир звездной богемы...



Страна: США
Студия: Gravier Productions, Perdido Productions
Продолжительность: 01:32:23
Перевод: Дублированный | iTunes
Субтитры: Русские, английские

Файл
Формат: MKV
Качество: BDRemux 1080p
идео: AVC/H.264, 1920х1080, ~28.0 Mbps
Аудио 1: AC3, 6 ch, 384 Kbps - Русский (Dub, iTunes)
Аудио 2: DTS-HD MA, 6 ch, 1920 Kbps - Английский

MediaInfo:
General
Unique ID : 239906885611725711058876274359867370280 (0xB47C62AF3D1C6A4995A0C69E61B56B28)
Complete name : G:A.Rainy.Day.in.New.York.2019.REMUX.mkv
Format : Matroska
Format version : Version 4 / Version 2
File size : 19.6 GiB
Duration : 1 h 32 min
Overall bit rate mode : Variable
Overall bit rate : 30.3 Mb/s
Encoded date : UTC 2020-01-01 07:40:45
Writing application : mkvmerge v20.0.0 ('I Am The Sun') 64-bit
Writing library : libebml v1.3.5 + libmatroska v1.4.8

Video
ID : 1
Format : AVC
Format/Info : Advanced Video Codec
Format profile : High@L4.1
Format settings : CABAC / 4 Ref Frames
Format settings, CABAC : Yes
Format settings, RefFrames : 4 frames
Format settings, GOP : M=3, N=24
Codec ID : V_MPEG4/ISO/AVC
Duration : 1 h 32 min
Bit rate mode : Variable
Bit rate : 28.0 Mb/s
Maximum bit rate : 35.0 Mb/s
Width : 1 920 pixels
Height : 1 080 pixels
Display aspect ratio : 16:9
Frame rate mode : Constant
Frame rate : 23.976 (24000/1001) FPS
Standard : NTSC
Color space : YUV
Chroma subsampling : 4:2:0
Bit depth : 8 bits
Scan type : Progressive
Bits/(Pixel*Frame) : 0.563
Stream size : 18.1 GiB (92%)
Language : English
Default : Yes
Forced : No
Color range : Limited
Color primaries : BT.709
Transfer characteristics : BT.709
Matrix coefficients : BT.709

Audio #1
ID : 2
Format : AC-3
Format/Info : Audio Coding 3
Codec ID : A_AC3
Duration : 1 h 32 min
Bit rate mode : Constant
Bit rate : 384 kb/s
Channel(s) : 6 channels
Channel positions : Front: L C R, Side: L R, LFE
Sampling rate : 48.0 kHz
Frame rate : 31.250 FPS (1536 SPF)
Bit depth : 16 bits
Compression mode : Lossy
Stream size : 254 MiB (1%)
Title : Dub iTunes
Language : Russian
Service kind : Complete Main
Default : Yes
Forced : No

Audio #2
ID : 3
Format : DTS
Format/Info : Digital Theater Systems
Format profile : MA / Core
Codec ID : A_DTS
Duration : 1 h 32 min
Bit rate mode : Variable / Constant
Bit rate : 1 920 kb/s / 1 509 kb/s
Channel(s) : 6 channels
Channel positions : Front: L C R, Side: L R, LFE
Sampling rate : 48.0 kHz
Frame rate : 93.750 FPS (512 SPF)
Bit depth : 16 bits
Compression mode : Lossless / Lossy
Stream size : 1.23 GiB (6%)
Language : English
Default : No
Forced : No

Text #1
ID : 4
Format : UTF-8
Codec ID : S_TEXT/UTF8
Codec ID/Info : UTF-8 Plain Text
Duration : 1 h 28 min
Bit rate : 153 b/s
Count of elements : 1664
Stream size : 99.8 KiB (0%)
Language : Russian
Default : No
Forced : No

Text #2
ID : 5
Format : UTF-8
Codec ID : S_TEXT/UTF8
Codec ID/Info : UTF-8 Plain Text
Duration : 1 h 29 min
Bit rate : 96 b/s
Count of elements : 1630
Stream size : 63.3 KiB (0%)
Language : English
Default : No
Forced : No

Menu
00:00:00.000 : en:Chapter 01
00:04:58.423 : en:Chapter 02
00:07:39.375 : en:Chapter 03
00:12:23.159 : en:Chapter 04
00:16:56.640 : en:Chapter 05
00:21:41.383 : en:Chapter 06
00:27:55.799 : en:Chapter 07
00:32:11.346 : en:Chapter 08
00:37:20.988 : en:Chapter 09
00:42:44.812 : en:Chapter 10
00:45:11.542 : en:Chapter 11
00:49:59.538 : en:Chapter 12
00:54:46.366 : en:Chapter 13
01:00:30.043 : en:Chapter 14
01:04:27.488 : en:Chapter 15
01:09:32.376 : en:Chapter 16
01:12:15.789 : en:Chapter 17
01:16:35.215 : en:Chapter 18
01:21:22.836 : en:Chapter 19
01:27:12.977 : en:Chapter 20
Скриншоты
 

Вложения

  • 98,7 KB Просмотры: 0
    Личеров 0
    Сидеров 0
    Файлов 1
    Объем 19,6 GB
Ваш e-mail не будет опубликован. Он потребуется для подтверждения Вашего поста.
Оформление текста Нажмите «Ввод», чтобы отправить ответ.

Привет!

Мы группа людей которые решили помочь другим в решении их проблем, а так же пользователям с поиском самых свежих и качественных инфопродуктов. За 4 с небольшим месяца мы создали этот форум на который заходят ежедневно тысячи человек и посещаемость постоянно растёт. Мы создали панель лицензирования для защиты PHP скриптов от воровства и SEO панель для мониторинга наших сайтов и выбора верной стратегии их развития. Мы надеемся что то что мы создали пригодится Вам и возможно Вы поможете нам развиваться и совершенствоваться вместе с Вами.

Статистика форума

Темы
380.770
Сообщения
420.528
Пользователи
51.099
Новый пользователь
nothin12k

Приложения форума для iOS и Android


У ркн там нет власти ;)
Приватные разговоры
Помощь Пользователи
    Вы не присоединились ни к одной комнате.