За последнюю неделю опубликовано 57 новых материалов.
Инструкция новичку Путеводитель по форуму Прокси для Telegram Показать подсказки , это бомба!

Скачать Дорожное чудовище / Monster Man (2003) DVDRip-AVC | P бесплатно через торрент

  • Поучаствуй (в качестве покупателя) в любых пяти совместных покупках (кроме завершённых и "Моментальных") и получи группу "Новичок" навсегда -> ссылка на раздел
  • Получай до 480 рублей за каждого приглашенного пользователя!
    представляем Вам очередное расширение партнерской программы, подробности описаны тут -> ссылка
  • 90% материалов доступно к скачиванию после простой регистрации!
    Если же ты хочешь скачивать материалы без требования оставлять отзывы то получи группу "Новичок", 10 способов повышения описаны тут -> ссылка
  • К сожалению количество битых ссылок растет и мы уже не можем их оперативно восстанавливать поэтому просим помощи у каждого нашего пользователя.
    С сегодняшнего дня, за каждую восстановленную ссылку мы заплатим Вам.
    Подробнее тут -> ссылка
  • Перенесем твои заслуги с другого ресурса!
    Мы понимаем как сложно прокачивать аккаунты на форумах, вроде раскачал аккаунт, а тут появляется ресурс в 100 раз круче но тоже с системой прокачки и снова качать аккаунт...
    Предлагаем вам перенести Ваши заслуги на другом подобном ресурсе к нам.
    Подробности описаны тут -> ссылка
  • Вы можете получать по 2.5% с каждой покупки и продажи на маркете! Подробности в теме Партнёрская программа
Если Вы не хотите скачивать, Вы всегда можетепосмотретьонлайн, просто нажмите кнопку ниже :

Открыть плеер

Torrent_Bot

Торрент-Бот
Бот форума
4 Окт 2016
92
163
20



Информация о фильме
Название: Дорожное чудовище
Оригинальное название: Monster Man
Год выхода: 2003
Жанр: Ужасы, комедия
Режиссер: Майкл Дэвис
В ролях: Эрик Джангманн,Джастин Урих,Айми Брукс,Майкл Бэйли Смит,Джо Гудрич,Тим Ситарц,Джон Грин мл.,Стив ДеРеллиан,Роберт Р. Шафер,Диана Морган

О фильме:
Адам и Харли едут на машине на свадьбу своей однокурсницы. На дороге друзья подбирают попутчицу. Пока выясняется, кто же станет ее бойфрендом на время поездки, какой-то урод-мутант убивает поблизости людей, некоторых лишает конечностей. Съехав на шоссе 55, они увидели, что сзади их догоняет огромная машина, за рулем которой сидел некто, в чьих глазах горело пламя ада. И началась гонка на выживание, в которой проигравший погибает…


Страна: США
Продолжительность: 01:35:26
Перевод: Профессиональный (многоголосый, закадровый)

Файл
Кодек: h.264
Качество: DVDRip-AVC
Видео: MPEG-4, 720x480 @854x480, 29.970 fps ~1733 kbps
Звук:
1) 48 KHz, AC3, 2 ch ~224 Kbps - MVO
2) 48 KHz, AC3, 2 ch ~224 Kbps - Original

MediaInfo
General
Unique ID : 249398369058129805612294744229577990501 (0xBBA060F2D03DE057BCA1D94ED8C7A165)
Format : Matroska
Format version : Version 4 / Version 2
File size : 1.45 GiB
Duration : 1 h 35 min
Overall bit rate : 2 182 kb/s
Movie name : Monster Man (2003)
Encoded date : UTC 2016-09-10 21:49:14 / UTC
Writing application : mkvmerge v9.3.1 ('Mask Machine') 64bit
Writing library : libebml v1.3.4 + libmatroska v1.4.5 / Lavf55.12.0
Cover : Yes
Attachments : Cover.jpg

Video
ID : 1
Format : AVC
Format/Info : Advanced Video Codec
Format profile : [email protected]
Format settings, CABAC : Yes
Format settings, ReFrames : 9 frames
Codec ID : V_MPEG4/ISO/AVC
Duration : 1 h 35 min
Bit rate : 1 733 kb/s
Width : 720 pixels
Height : 480 pixels
Display aspect ratio : 16:9
Frame rate mode : Constant
Frame rate : 29.970 (30000/1001) FPS
Standard : NTSC
Color space : YUV
Chroma subsampling : 4:2:0
Bit depth : 8 bits
Scan type : Progressive
Bits/(Pixel*Frame) : 0.167
Stream size : 1.13 GiB (77%)
Title : MPEG-4, 720x480 @854x480, 29.970 fps ~1733 kbps
Writing library : x264 core 142 r2479 dd79a61
Encoding settings : cabac=1 / ref=9 / deblock=1:-2:-2 / analyse=0x3:0x133 / me=umh / subme=11 / psy=1 / psy_rd=1.00:0.10 / mixed_ref=1 / me_range=24 / chroma_me=1 / trellis=2 / 8x8dct=1 / cqm=0 / deadzone=21,11 / fast_pskip=0 / chroma_qp_offset=-3 / threads=6 / lookahead_threads=1 / sliced_threads=0 / nr=0 / decimate=1 / interlaced=0 / bluray_compat=0 / constrained_intra=0 / bframes=16 / b_pyramid=2 / b_adapt=2 / b_bias=0 / direct=3 / weightb=1 / open_gop=0 / weightp=2 / keyint=300 / keyint_min=30 / scenecut=40 / intra_refresh=0 / rc_lookahead=60 / rc=2pass / mbtree=0 / bitrate=1733 / ratetol=1.0 / qcomp=0.60 / qpmin=0 / qpmax=69 / qpstep=4 / cplxblur=20.0 / qblur=0.5 / vbv_maxrate=62500 / vbv_bufsize=78125 / nal_hrd=none / filler=0 / ip_ratio=1.40 / pb_ratio=1.30 / aq=1:1.00
Language : English
Default : Yes
Forced : No
Color range : Limited
Color primaries : BT.601 NTSC
Transfer characteristics : BT.709
Matrix coefficients : BT.601
Statistics Tags Issue : mkvmerge v9.3.1 ('Mask Machine') 64bit 2016-09-10 21:49:14 / mkvmerge v9.3.1 ('Mask Machine') 64bit 2016-09-10 21:49:14 / UTC
FromStats_BitRate : 1731538
FromStats_Duration : 01:35:26.454000000
FromStats_FrameCount : 171622
FromStats_StreamSize : 1239446616

Audio #1
ID : 2
Format : AC-3
Format/Info : Audio Coding 3
Format profile : Dolby Digital
Mode extension : CM (complete main)
Format settings, Endianness : Big
Codec ID : A_AC3
Duration : 1 h 35 min
Bit rate mode : Constant
Bit rate : 224 kb/s
Channel(s) : 2 channels
Channel positions : Front: L R
Sampling rate : 48.0 kHz
Frame rate : 31.250 FPS (1536 spf)
Compression mode : Lossy
Delay relative to video : -5 ms
Stream size : 153 MiB (10%)
Title : 48 KHz, AC3, 2 ch ~224 Kbps - MVO
Language : Russian
Default : Yes
Forced : No
Statistics Tags Issue : mkvmerge v9.3.1 ('Mask Machine') 64bit 2016-09-10 21:49:14 / mkvmerge v9.3.1 ('Mask Machine') 64bit 2016-09-10 21:49:14 / UTC
FromStats_BitRate : 224000
FromStats_Duration : 01:35:26.464000000
FromStats_FrameCount : 178952
FromStats_StreamSize : 160340992

Audio #2
ID : 3
Format : AC-3
Format/Info : Audio Coding 3
Format profile : Dolby Digital
Mode extension : CM (complete main)
Format settings, Endianness : Big
Codec ID : A_AC3
Duration : 1 h 35 min
Bit rate mode : Constant
Bit rate : 224 kb/s
Channel(s) : 2 channels
Channel positions : Front: L R
Sampling rate : 48.0 kHz
Frame rate : 31.250 FPS (1536 spf)
Compression mode : Lossy
Delay relative to video : -5 ms
Stream size : 153 MiB (10%)
Title : 48 KHz, AC3, 2 ch ~224 Kbps - Original
Language : English
Default : No
Forced : No
Statistics Tags Issue : mkvmerge v9.3.1 ('Mask Machine') 64bit 2016-09-10 21:49:14 / mkvmerge v9.3.1 ('Mask Machine') 64bit 2016-09-10 21:49:14 / UTC
FromStats_BitRate : 224000
FromStats_Duration : 01:35:26.528000000
FromStats_FrameCount : 178954
FromStats_StreamSize : 160342784

Menu
00:00:00.000 : :Chapter 1
00:21:00.259 : :Chapter 2
00:40:39.571 : :Chapter 3
00:59:32.703 : :Chapter 4
01:15:30.593 : :Chapter 5
01:26:51.807 : :Chapter 6
Скриншоты
 

Вложения

  • 15,5 KB Просмотры: 0
    Личеров 0
    Сидеров 0
    Файлов 1
    Объем 1,5 GB

Привет!

Мы группа людей которые решили помочь другим в решении их проблем, а так же пользователям с поиском самых свежих и качественных инфопродуктов. За 4 с небольшим месяца мы создали этот форум на который заходят ежедневно тысячи человек и посещаемость постоянно растёт. Мы создали панель лицензирования для защиты PHP скриптов от воровства и SEO панель для мониторинга наших сайтов и выбора верной стратегии их развития. Мы надеемся что то что мы создали пригодится Вам и возможно Вы поможете нам развиваться и совершенствоваться вместе с Вами.

Статистика форума

Темы
406.698
Сообщения
465.162
Пользователи
84.789
Новый пользователь
Setis

Приложения форума для iOS и Android


У ркн там нет власти ;)
Приватные разговоры
Помощь Пользователи
    Вы не присоединились ни к одной комнате.