За последнюю неделю опубликовано 62 новых материалов.
Инструкция новичку Путеводитель по форуму Прокси для Telegram Показать подсказки , это бомба!

Скачать Дорогой мой человек (1958) DVDRip от New-Team бесплатно через торрент

  • Поучаствуй (в качестве покупателя) в любых пяти совместных покупках (кроме завершённых и "Моментальных") и получи группу "Новичок" навсегда -> ссылка на раздел
  • Получай до 480 рублей за каждого приглашенного пользователя!
    представляем Вам очередное расширение партнерской программы, подробности описаны тут -> ссылка
  • 90% материалов доступно к скачиванию после простой регистрации!
    Если же ты хочешь скачивать материалы без требования оставлять отзывы то получи группу "Новичок", 10 способов повышения описаны тут -> ссылка
  • К сожалению количество битых ссылок растет и мы уже не можем их оперативно восстанавливать поэтому просим помощи у каждого нашего пользователя.
    С сегодняшнего дня, за каждую восстановленную ссылку мы заплатим Вам.
    Подробнее тут -> ссылка
  • Перенесем твои заслуги с другого ресурса!
    Мы понимаем как сложно прокачивать аккаунты на форумах, вроде раскачал аккаунт, а тут появляется ресурс в 100 раз круче но тоже с системой прокачки и снова качать аккаунт...
    Предлагаем вам перенести Ваши заслуги на другом подобном ресурсе к нам.
    Подробности описаны тут -> ссылка
  • Вы можете получать по 2.5% с каждой покупки и продажи на маркете! Подробности в теме Партнёрская программа
Если Вы не хотите скачивать, Вы всегда можетепосмотретьонлайн, просто нажмите кнопку ниже :

Открыть плеер

Torrent_Bot

Торрент-Бот
Бот форума
4 Окт 2016
91
163
20

Мы "В КОНТАКТЕ"

Страна: СССР
Год выпуска: 1959
Студия: Ленфильм

Жанр: драма, мелодрама
Продолжительность: 01:42:01

Перевод: не требуется
Оригинальная аудиодорожка: русский
Cубтитры: нет

Режиссер: Иосиф Хейфиц

В ролях: Алексей Баталов, Инна Макарова, Петр Константинов, Леонид Быков, Борис Чирков, Иван Переверзев, Юрий Медведев, Цецилия Мансурова, Лидия Штыкан, Петр Кирюткин, Павел Усовниченко, Михаил Екатерининский, Любовь Малиновская, Б.Виноградова, В.Журавская...

Описание: Врач Владимир Устименко — человек долга и чести, предан делу, которому служит, и предан одной-единственной любви, которую проносит через всю жизнь: любви к Варе Степановой, взбалмошной девчонке, мечтающей стать великой актрисой, но ставшей геологом. Война жестоко вмешается в судьбы героев и ещё больше напутает в их, и без того хрупких, отношениях. После долгой и неожиданной разлуки герои впервые встретятся во фронтовом госпитале, где военврач Устименко будет оперировать неприходящую в сознание «трудную» пациентку — Варю Степанову…





Рецензия
Фильм о настоящем человеке.

Мне трудно вспомнить хотя бы еще один фильм о настоящем человеке.
Этот фильм не о коммунизме и не о войне. Этот фильм о личности, о принципах, о человеке, который верен слову и своей чести, долгу.
Забытые сейчас ценности, так необходимые сегодня в жизни, — воспеты в призме одной личности. Человека с большой буквы.
Фильм о непростой судьбе необыкновенного человека.
Необыкновенного именно потому, что в действиях своих он руководствуется принципами совести, морали и нравственности, чувством долга и полным отсутствием эгоизма.
Не размениваясь на регалии и звания, накопительство, главный герой фильма не боится испытаний и трудностей.
До этого фильма надо дорасти.
«Пропаганда» коммунизма занимает весьма посредственное место, скорей имеет место пропаганда человеческих ценностей. Весьма глупо оценивать фильм как «советский».
Этот фильм можно и нужно пересматривать ни один раз, наслаждаясь игрой великолепных актеров.

Именно такие фильмы надо пересматривать постоянно и показывать детям.
Исходник: DVD9 R5
Тип релиза: DVDRip
Контейнер: AVI

Видео: 720x528 (1,381:1), 25 fps, XviD ~ 1840 kbps avg, 0.194 bit/pixel
Аудио: 48 kHz, Dolby AC3 2.0, 192 kbps

Раздача от:
MediaInfo
Общее
Полное имя : Dorogoy.moy.chelovek.1958.DVDRip_[New-team]_by_AVP_Studio.avi
Формат : AVI
Формат/Информация : Audio Video Interleave
Размер файла : 1,45 Гбайт
Продолжительность : 1 ч. 42 м.
Общий поток : 2042 Кбит/сек
Программа кодирования : VirtualDubMod 1.5.10.3 | www.virtualdub-fr.org || (build 2550/release)
Библиотека кодирования : VirtualDubMod build 2550/release

Видео
Идентификатор : 0
Формат : MPEG-4 Visual
Профиль формата : Advanced [email protected]
Параметр BVOP формата : 1
Параметр QPel формата : Нет
Параметр GMC формата : Без точки перехода
Параметр матрицы формата : Выборочная
Идентификатор кодека : XVID
Идентификатор кодека/Подсказка : XviD
Продолжительность : 1 ч. 42 м.
Битрейт : 1840 Кбит/сек
Ширина : 720 пикселей
Высота : 528 пикселей
Соотношение сторон : 4:3
Частота кадров : 25,000 кадров/сек
Цветовое пространство : YUV
Субдискретизация насыщенности : 4:2:0
Битовая глубина : 8 бит
Тип развёртки : Прогрессивная
Метод сжатия : С потерями
Бит/(Пиксели*Кадры) : 0.194
Размер потока : 1,31 Гбайт (90%)
Библиотека кодирования : XviD 65

Аудио
Идентификатор : 1
Формат : AC-3
Формат/Информация : Audio Coding 3
Параметр Endianness формата : Big
Идентификатор кодека : 2000
Продолжительность : 1 ч. 42 м.
Вид битрейта : Постоянный
Битрейт : 192 Кбит/сек
Каналы : 2 канала
Расположение каналов : Front: L R
Частота : 48,0 КГц
Частота кадров : 31,250 кадров/сек (1536 SPF)
Битовая глубина : 16 бит
Метод сжатия : С потерями
Размер потока : 140 Мбайт (9%)
Выравнивание : Разделение по промежуткам
Продолжительность промежутка : 40 мс. (1,00 видеокадр)
Время предзагрузки промежутка : 500 мс
Скриншоты
 

Вложения

  • 15,9 KB Просмотры: 0
    Личеров 0
    Сидеров 0
    Файлов 1
    Объем 1,5 GB

Привет!

Мы группа людей которые решили помочь другим в решении их проблем, а так же пользователям с поиском самых свежих и качественных инфопродуктов. За 4 с небольшим месяца мы создали этот форум на который заходят ежедневно тысячи человек и посещаемость постоянно растёт. Мы создали панель лицензирования для защиты PHP скриптов от воровства и SEO панель для мониторинга наших сайтов и выбора верной стратегии их развития. Мы надеемся что то что мы создали пригодится Вам и возможно Вы поможете нам развиваться и совершенствоваться вместе с Вами.

Статистика форума

Темы
410.548
Сообщения
469.088
Пользователи
86.081
Новый пользователь
Artkham

Приложения форума для iOS и Android


У ркн там нет власти ;)
Приватные разговоры
Помощь Пользователи
    Вы не присоединились ни к одной комнате.