За последнюю неделю опубликовано 58 новых материалов.
Инструкция новичку Путеводитель по форуму Прокси для Telegram Показать подсказки , это бомба!

Скачать Дорога к дому / Jibeuro / The Way Home (2002) BDRip 1080p от HDReactor | P бесплатно через торрент

  • Поучаствуй (в качестве покупателя) в любых пяти совместных покупках (кроме завершённых и "Моментальных") и получи группу "Новичок" навсегда -> ссылка на раздел
  • Получай до 480 рублей за каждого приглашенного пользователя!
    представляем Вам очередное расширение партнерской программы, подробности описаны тут -> ссылка
  • 90% материалов доступно к скачиванию после простой регистрации!
    Если же ты хочешь скачивать материалы без требования оставлять отзывы то получи группу "Новичок", 10 способов повышения описаны тут -> ссылка
  • К сожалению количество битых ссылок растет и мы уже не можем их оперативно восстанавливать поэтому просим помощи у каждого нашего пользователя.
    С сегодняшнего дня, за каждую восстановленную ссылку мы заплатим Вам.
    Подробнее тут -> ссылка
  • Перенесем твои заслуги с другого ресурса!
    Мы понимаем как сложно прокачивать аккаунты на форумах, вроде раскачал аккаунт, а тут появляется ресурс в 100 раз круче но тоже с системой прокачки и снова качать аккаунт...
    Предлагаем вам перенести Ваши заслуги на другом подобном ресурсе к нам.
    Подробности описаны тут -> ссылка
  • Вы можете получать по 2.5% с каждой покупки и продажи на маркете! Подробности в теме Партнёрская программа
Если Вы не хотите скачивать, Вы всегда можетепосмотретьонлайн, просто нажмите кнопку ниже :

Открыть плеер

Torrent_Bot

Торрент-Бот
Бот форума
4 Окт 2016
102
157
20

Информация о фильме
Название: Дорога к дому
Оригинальное название: Jibeuro / The Way Home
Год выпуска: 2002
Жанр:Драма
Выпущено: Южная Корея, CJ Entertainment, Tube Entertainment
Режиссер: Юн Хян Ли
В ролях: Юн Бун Ким, Сын Хо Ю, Хью Хи Дон, Кён Хён Мин, Ын Кён Им

О фильме: Бойкий мальчишка, типичный «сложный ребенок», вынужден некоторое время жить вдали от привычной ему городской суеты со своей немой бабушкой. Казалось бы, беспомощная старая женщина — удобный объект для проявления детской жестокости. Но бабушка терпелива и мудра, она обладает даром, против которого жестокость бессильна — даром любви.



Продолжительность: 01:27:49
Перевод: Профессиональный многоголосый
Субтитры: Русские, английские

Файл
Качество: BDRip (1080p)
Видео: MPEG-4 AVC, 12.1 Mбит/с, 1920x1080, 24 кадр/с
Аудио #1: Русский (AC3, 6 ch, 448 Кбит/с)
Аудио #2: Корейский (AC3, 6 ch, 448 Кбит/с)

МедиаИнфо
Формат : Matroska
Версия формата : Version 2
Размер файла : 7,95 Гбайт
Продолжительность : 1 ч. 27 м.
Общий поток : 13,0 Мбит/сек
Название фильма : ~V ad~
Дата кодирования : UTC 2020-07-12 04:06:01
Программа кодирования : mkvmerge v6.9.1 ('Blue Panther') 32bit built on Apr 18 2014 18:15:44
Библиотека кодирования : libebml v1.3.0 + libmatroska v1.4.1
Обложка : Yes
Attachments : cover.jpg

Видео
Идентификатор : 1
Формат : AVC
Формат/Информация : Advanced Video Codec
Профиль формата : High@L4.1
Настройки формата : CABAC / 4 Ref Frames
Параметр CABAC формата : Да
Параметр RefFrames формата : 4 кадра
Идентификатор кодека : V_MPEG4/ISO/AVC
Продолжительность : 1 ч. 27 м.
Битрейт : 12,1 Мбит/сек
Ширина : 1920 пикселей
Высота : 1080 пикселей
Соотношение сторон : 16:9
Режим частоты кадров : Постоянный
Частота кадров : 24,000 кадра/сек
Цветовое пространство : YUV
Субдискретизация насыщенности : 4:2:0
Битовая глубина : 8 бит
Тип развёртки : Прогрессивная
Бит/(Пиксели*Кадры) : 0.242
Размер потока : 7,24 Гбайт (91%)
Заголовок : ~V~
Библиотека кодирования : x264 core 160 r3000 33f9e14
Настройки программы : cabac=1 / ref=4 / deblock=1:-3:-3 / analyse=0x3:0x133 / me=umh / subme=11 / psy=1 / psy_rd=1.00:0.00 / mixed_ref=1 / me_range=32 / chroma_me=1 / trellis=2 / 8x8dct=1 / cqm=0 / deadzone=21,11 / fast_pskip=0 / chroma_qp_offset=-2 / threads=12 / lookahead_threads=1 / sliced_threads=0 / nr=0 / decimate=0 / interlaced=0 / bluray_compat=0 / constrained_intra=0 / bframes=11 / b_pyramid=2 / b_adapt=2 / b_bias=0 / direct=3 / weightb=1 / open_gop=0 / weightp=2 / keyint=240 / keyint_min=24 / scenecut=40 / intra_refresh=0 / rc=2pass / mbtree=0 / bitrate=12068 / ratetol=1.0 / qcomp=0.65 / qpmin=0 / qpmax=69 / qpstep=4 / cplxblur=20.0 / qblur=0.5 / ip_ratio=1.20 / pb_ratio=1.20 / aq=3:0.80
Язык : Английский
Default : Да
Forced : Нет

Аудио #1
Идентификатор : 2
Формат : AC-3
Формат/Информация : Audio Coding 3
Коммерческое название : Dolby Digital
Идентификатор кодека : A_AC3
Продолжительность : 1 ч. 27 м.
Вид битрейта : Постоянный
Битрейт : 448 Кбит/сек
Каналы : 6 каналов
Channel layout : L R C LFE Ls Rs
Частота : 48,0 КГц
Частота кадров : 31,250 кадров/сек (1536 SPF)
Битовая глубина : 16 бит
Метод сжатия : С потерями
Размер потока : 281 Мбайт (3%)
Заголовок : MVO
Язык : Русский
Service Kind : Complete Main
Default : Да
Forced : Нет

Аудио #2
Идентификатор : 3
Формат : AC-3
Формат/Информация : Audio Coding 3
Коммерческое название : Dolby Digital
Идентификатор кодека : A_AC3
Продолжительность : 1 ч. 27 м.
Вид битрейта : Постоянный
Битрейт : 448 Кбит/сек
Каналы : 6 каналов
Channel layout : L R C LFE Ls Rs
Частота : 48,0 КГц
Частота кадров : 31,250 кадров/сек (1536 SPF)
Битовая глубина : 16 бит
Метод сжатия : С потерями
Размер потока : 281 Мбайт (3%)
Язык : Корейский
Service Kind : Complete Main
Default : Нет
Forced : Нет

Текст #1
Идентификатор : 4
Формат : UTF-8
Идентификатор кодека : S_TEXT/UTF8
Идентификатор кодека/Информация : UTF-8 Plain Text
Язык : Русский
Default : Нет
Forced : Нет

Текст #2
Идентификатор : 5
Формат : UTF-8
Идентификатор кодека : S_TEXT/UTF8
Идентификатор кодека/Информация : UTF-8 Plain Text
Язык : Английский
Default : Нет
Forced : Нет

Меню
00:00:00.000 : :Chapter 01
00:03:39.208 : :Chapter 02
00:07:33.417 : :Chapter 03
00:10:26.417 : :Chapter 04
00:17:12.417 : :Chapter 05
00:20:01.417 : :Chapter 06
00:21:51.208 : :Chapter 07
00:23:29.417 : :Chapter 08
00:30:21.417 : :Chapter 09
00:33:16.417 : :Chapter 10
00:41:47.417 : :Chapter 11
00:44:39.417 : :Chapter 12
00:51:13.417 : :Chapter 13
00:58:30.417 : :Chapter 14
01:04:58.417 : :Chapter 15
01:08:18.417 : :Chapter 16
01:10:12.417 : :Chapter 17
01:14:27.417 : :Chapter 18
01:16:36.417 : :Chapter 19
01:19:30.417 : :Chapter 20



Сэмпл
Релиз от:
 

Вложения

  • 21,1 KB Просмотры: 0
    Личеров 0
    Сидеров 0
    Файлов 1
    Объем 8 GB

Привет!

Мы группа людей которые решили помочь другим в решении их проблем, а так же пользователям с поиском самых свежих и качественных инфопродуктов. За 4 с небольшим месяца мы создали этот форум на который заходят ежедневно тысячи человек и посещаемость постоянно растёт. Мы создали панель лицензирования для защиты PHP скриптов от воровства и SEO панель для мониторинга наших сайтов и выбора верной стратегии их развития. Мы надеемся что то что мы создали пригодится Вам и возможно Вы поможете нам развиваться и совершенствоваться вместе с Вами.

Статистика форума

Темы
405.486
Сообщения
462.620
Пользователи
80.718
Новый пользователь
podshibjakin100

Приложения форума для iOS и Android


У ркн там нет власти ;)
Приватные разговоры
Помощь Пользователи
    Вы не присоединились ни к одной комнате.