За последнюю неделю опубликовано 59 новых материалов.
Инструкция новичку Путеводитель по форуму Прокси для Telegram Показать подсказки , это бомба!

Скачать Донни Дарко / Donnie Darko (2001) BDRip-AVC от ExKinoRay | P | Remastered | Режиссерская версия бесплатно через торрент

  • Поучаствуй (в качестве покупателя) в любых пяти совместных покупках (кроме завершённых и "Моментальных") и получи группу "Новичок" навсегда -> ссылка на раздел
  • Получай до 480 рублей за каждого приглашенного пользователя!
    представляем Вам очередное расширение партнерской программы, подробности описаны тут -> ссылка
  • 90% материалов доступно к скачиванию после простой регистрации!
    Если же ты хочешь скачивать материалы без требования оставлять отзывы то получи группу "Новичок", 10 способов повышения описаны тут -> ссылка
  • К сожалению количество битых ссылок растет и мы уже не можем их оперативно восстанавливать поэтому просим помощи у каждого нашего пользователя.
    С сегодняшнего дня, за каждую восстановленную ссылку мы заплатим Вам.
    Подробнее тут -> ссылка
  • Перенесем твои заслуги с другого ресурса!
    Мы понимаем как сложно прокачивать аккаунты на форумах, вроде раскачал аккаунт, а тут появляется ресурс в 100 раз круче но тоже с системой прокачки и снова качать аккаунт...
    Предлагаем вам перенести Ваши заслуги на другом подобном ресурсе к нам.
    Подробности описаны тут -> ссылка
  • Вы можете получать по 2.5% с каждой покупки и продажи на маркете! Подробности в теме Партнёрская программа
Если Вы не хотите скачивать, Вы всегда можетепосмотретьонлайн, просто нажмите кнопку ниже :

Открыть плеер

Torrent_Bot

Торрент-Бот
Бот форума
4 Окт 2016
92
163
20


Информация о фильме
Название: Донни Дарко
Оригинальное название: Donnie Darko
Год выхода: 2001
Жанр: Фантастика, триллер, драма, детектив
Режиссер: Ричард Келли
В ролях: Джейк Джилленхол, Дрю Бэрримор, Мэгги Джилленхол, Джеймс Дювэл, Мэри МакДоннелл, Холмс Осборн, Дэвид Сент-Джеймс, Патрик Суэйзи, Марк Хоффман, Дейви Чейз, Артур Таксиер, Том Танген, Джаззи Мэханна, Стюарт Стоун, Гэри Ланди, Бет Грант, Джена Мэлоун, Сет Роген, Дэвид Морленд, Ноа Уайл, Джолин Парди, Кристина Малота, Марина Малота, Пэйшенс Кливленд, Кэтрин Росс, Лиза К. Уайатт, Рэйчел Уинфри, Джек Сальваторе-мл., Ли Уивер, Филлис Лайонс, Эшли Тисдейл, Джерри Трэйнор, Джоан М. Блэр, Фран Кранз, Скотти Левенуорф, Сара Хадсон

О фильме:
К своим 16 годам старшеклассник Донни уже знает, что такое смерть. После несчастного случая, едва не стоившего ему жизни, Донни открывает в себе способности изменять время и судьбу. Перемены, случившиеся с ним, пугают всех, кто его окружает – родителей, сестер, учителей, друзей, любимую девушку. Научившись путешествовать в другие вселенные, Донни пытается приспособиться к тому, что теперь любые, даже самые незначительные его поступки вызывают потрясения космических масштабов…



Страна: США
Студия: Adam Fields Productions, Flower Films (II), Gaylord Films, Pandora Cinema
Продолжительность: 02:13:53
Перевод: Профессиональный (многоголосый закадровый)

Файл
Формат: MKV
Качество: BDRip-AVC
Видео: MPEG-4 AVC, 772x328, - 996 Кбит/с
Аудио 1: AAC-HE, 2 ch, - 76 Кбит/с | MVO, «Омикрон»
Аудио 2: AAC-HE, 2 ch, - 76 Кбит/с | MVO, «Карусель»
Субтитры: Русские, английские

MI
Общее
Уникальный идентификатор : 175603986547399503706355611573425715791 (0x841C18FC9C778D886A3E9B4DBD36BA4F)
Полное имя : D:MOVIESDonnie.Darko.2001.BDRip-AVC.ExKinoRay.mkv
Формат : Matroska
Версия формата : Version 4
Размер файла : 1,07 Гбайт
Продолжительность : 2 ч. 13 м.
Общий поток : 1 142 Кбит/сек
Дата кодирования : UTC 2020-08-15 04:36:23
Программа кодирования : mkvmerge v45.0.0 ('Heaven in Pennies') 64-bit
Библиотека кодирования : libebml v1.3.10 + libmatroska v1.5.2

Видео
Идентификатор : 1
Формат : AVC
Формат/Информация : Advanced Video Codec
Профиль формата : [email protected]
Настройки формата : CABAC / 11 Ref Frames
Параметр CABAC формата : Да
Параметр RefFrames формата : 11 кадров
Идентификатор кодека : V_MPEG4/ISO/AVC
Продолжительность : 2 ч. 13 м.
Битрейт : 996 Кбит/сек
Ширина : 772 пикселя
Высота : 328 пикселей
Соотношение сторон : 2,35:1
Режим частоты кадров : Постоянный
Частота кадров : 23,976 (24000/1001) кадра/сек
Цветовое пространство : YUV
Субдискретизация насыщенности : 4:2:0
Битовая глубина : 8 бит
Тип развёртки : Прогрессивная
Бит/(Пиксели*Кадры) : 0.164
Размер потока : 945 Мбайт (86%)
Библиотека кодирования : x264 core 160 r3000 33f9e14
Настройки программы : cabac=1 / ref=11 / deblock=1:-2:-2 / analyse=0x3:0x133 / me=umh / subme=10 / psy=1 / psy_rd=1.05:0.14 / mixed_ref=1 / me_range=32 / chroma_me=1 / trellis=2 / 8x8dct=1 / cqm=0 / deadzone=21,11 / fast_pskip=0 / chroma_qp_offset=-3 / threads=6 / lookahead_threads=1 / sliced_threads=0 / nr=0 / decimate=0 / interlaced=0 / bluray_compat=0 / constrained_intra=0 / bframes=12 / b_pyramid=2 / b_adapt=2 / b_bias=0 / direct=3 / weightb=1 / open_gop=0 / weightp=2 / keyint=240 / keyint_min=23 / scenecut=40 / intra_refresh=0 / rc=2pass / mbtree=0 / bitrate=996 / ratetol=1.0 / qcomp=0.60 / qpmin=0 / qpmax=69 / qpstep=4 / cplxblur=20.0 / qblur=0.5 / ip_ratio=1.40 / pb_ratio=1.30 / aq=3:1.00
Default : Да
Forced : Нет
Цветовой диапазон : Limited
Основные цвета : BT.709
Характеристики трансфера : BT.709
Коэффициенты матрицы : BT.709

Аудио #1
Идентификатор : 2
Формат : AAC LC SBR
Формат/Информация : Advanced Audio Codec Low Complexity with Spectral Band Replication
Коммерческое название : HE-AAC
Настройки формата : Explicit
Идентификатор кодека : A_AAC-2
Продолжительность : 2 ч. 13 м.
Битрейт : 76,0 Кбит/сек
Каналы : 2 канала
Channel layout : L R
Частота : 48,0 КГц
Частота кадров : 23,438 кадра/сек (2048 SPF)
Метод сжатия : С потерями
Задержка видео : 31 мс.
Размер потока : 72,8 Мбайт (7%)
Заголовок : Омикрон
Язык : Russian
Default : Да
Forced : Нет

Аудио #2
Идентификатор : 3
Формат : AAC LC SBR
Формат/Информация : Advanced Audio Codec Low Complexity with Spectral Band Replication
Коммерческое название : HE-AAC
Настройки формата : Explicit
Идентификатор кодека : A_AAC-2
Продолжительность : 2 ч. 13 м.
Битрейт : 76,0 Кбит/сек
Каналы : 2 канала
Channel layout : L R
Частота : 48,0 КГц
Частота кадров : 23,438 кадра/сек (2048 SPF)
Метод сжатия : С потерями
Задержка видео : 31 мс.
Размер потока : 72,8 Мбайт (7%)
Заголовок : Карусель
Язык : Russian
Default : Нет
Forced : Нет

Текст #1
Идентификатор : 4
Формат : UTF-8
Идентификатор кодека : S_TEXT/UTF8
Идентификатор кодека/Информация : UTF-8 Plain Text
Продолжительность : 2 ч. 6 м.
Битрейт : 86 бит/сек
Count of elements : 1039
Размер потока : 79,8 Кбайт (0%)
Язык : Russian
Default : Нет
Forced : Нет

Текст #2
Идентификатор : 5
Формат : UTF-8
Идентификатор кодека : S_TEXT/UTF8
Идентификатор кодека/Информация : UTF-8 Plain Text
Продолжительность : 2 ч. 10 м.
Битрейт : 44 бит/сек
Count of elements : 1046
Размер потока : 42,3 Кбайт (0%)
Заголовок : full
Язык : English
Default : Нет
Forced : Нет

Текст #3
Идентификатор : 6
Формат : UTF-8
Идентификатор кодека : S_TEXT/UTF8
Идентификатор кодека/Информация : UTF-8 Plain Text
Продолжительность : 2 ч. 13 м.
Битрейт : 44 бит/сек
Count of elements : 1103
Размер потока : 44,0 Кбайт (0%)
Заголовок : SDH
Язык : English
Default : Нет
Forced : Нет

Меню
00:00:00.000 : en:Main Titles / Where Is Donnie?
00:04:17.190 : en:Family Tension
00:09:10.217 : en:Wake Up, Come Closer
00:13:00.281 : en:Engine Trouble
00:18:12.860 : en:Head Over Heels
00:23:18.700 : en:No Mail Today
00:27:08.798 : en:Controlling Fear
00:31:39.970 : en:Going Together
00:35:09.546 : en:They Made Me Do It
00:41:24.722 : en:Do You Believe in Time Travel?
00:44:49.828 : en:Simple Lifeline
00:50:32.504 : en:Grandma Death's Book
00:56:24.889 : en:Water and Metal
00:59:51.395 : en:Discussing Donnie
01:04:49.193 : en:The Manipulated Living
01:10:17.489 : en:Space and Time
01:15:31.671 : en:The Living Receiver
01:18:56.542 : en:Have You Ever Seen a Portal?
01:23:24.144 : en:Burn It to the Ground
01:27:35.729 : en:Inappropriate Methods
01:31:37.137 : en:The Rabbits Are Us
01:37:15.042 : en:Cellar Door
01:39:40.687 : en:Open Sky
01:44:34.748 : en:Ensurance Trap
01:48:52.540 : en:Time Is Running Out
01:53:08.062 : en:Facing Frank
01:58:47.968 : en:A Storm Is Coming
02:03:00.755 : en:Mad World / End Credits
Скриншоты

 

Вложения

  • 11,8 KB Просмотры: 0
    Личеров 0
    Сидеров 0
    Файлов 1
    Объем 1,1 GB

Привет!

Мы группа людей которые решили помочь другим в решении их проблем, а так же пользователям с поиском самых свежих и качественных инфопродуктов. За 4 с небольшим месяца мы создали этот форум на который заходят ежедневно тысячи человек и посещаемость постоянно растёт. Мы создали панель лицензирования для защиты PHP скриптов от воровства и SEO панель для мониторинга наших сайтов и выбора верной стратегии их развития. Мы надеемся что то что мы создали пригодится Вам и возможно Вы поможете нам развиваться и совершенствоваться вместе с Вами.

Статистика форума

Темы
406.692
Сообщения
465.149
Пользователи
84.760
Новый пользователь
sevoyan

Приложения форума для iOS и Android


У ркн там нет власти ;)
Приватные разговоры
Помощь Пользователи
    Вы не присоединились ни к одной комнате.