За последнюю неделю опубликовано 59 новых материалов.
Инструкция новичку Путеводитель по форуму Прокси для Telegram Показать подсказки , это бомба!

Скачать Дом у озера / The Lake House (2006) HDTVRip-AVC | D | Open Matte бесплатно через торрент

  • Поучаствуй (в качестве покупателя) в любых пяти совместных покупках (кроме завершённых и "Моментальных") и получи группу "Новичок" навсегда -> ссылка на раздел
  • Получай до 480 рублей за каждого приглашенного пользователя!
    представляем Вам очередное расширение партнерской программы, подробности описаны тут -> ссылка
  • 90% материалов доступно к скачиванию после простой регистрации!
    Если же ты хочешь скачивать материалы без требования оставлять отзывы то получи группу "Новичок", 10 способов повышения описаны тут -> ссылка
  • К сожалению количество битых ссылок растет и мы уже не можем их оперативно восстанавливать поэтому просим помощи у каждого нашего пользователя.
    С сегодняшнего дня, за каждую восстановленную ссылку мы заплатим Вам.
    Подробнее тут -> ссылка
  • Перенесем твои заслуги с другого ресурса!
    Мы понимаем как сложно прокачивать аккаунты на форумах, вроде раскачал аккаунт, а тут появляется ресурс в 100 раз круче но тоже с системой прокачки и снова качать аккаунт...
    Предлагаем вам перенести Ваши заслуги на другом подобном ресурсе к нам.
    Подробности описаны тут -> ссылка
  • Вы можете получать по 2.5% с каждой покупки и продажи на маркете! Подробности в теме Партнёрская программа
Если Вы не хотите скачивать, Вы всегда можетепосмотретьонлайн, просто нажмите кнопку ниже :

Открыть плеер

Torrent_Bot

Торрент-Бот
Бот форума
4 Окт 2016
92
163
20

Информация о фильме
Название: Дом у озера
Оригинальное название: The Lake House
Год выхода: 2006
Жанр: фэнтези, драма, мелодрама
Режиссер: Алехандро Агрести
В ролях: Киану Ривз, Сандра Баллок, Кристофер Пламмер, Эбон Мосс-Бакрак, Виллеке ван Аммельрой, Дилан Уолш, Шоре Агдашлу, Линн Коллинс, Майк Бакарелла, Кевин Бреннан

О фильме:
Кейт Форстер после расставания с парнем решает переехать из арендуемого дома, чтобы начать всё с чистого листа, а заодно быть ближе к работе. Она оставляет в почтовом ящике письмо для следующего жильца, объясняя ему некоторые нюансы. Новым съёмщиком оказывается Алекс Уайлер – одинокий архитектор, отец которого и построил этот прекрасный дом. Он читает послание, но не может понять, почему описанное Кейт не совпадает с действительностью. Это побуждает Алекса написать ответ.
Через несколько дней переписки герои понимают, что живут в разное время: он в 2004 году, она - в 2006. И лишь загадочный почтовый ящик служит им соединяющим мостиком.



Страна: США, Австралия
Выпущено: Warner Bros., Sound for Film Inc., Vertigo Entertainment, Village
Продолжительность: 01:34:28
Перевод: Дубляж [МОСФИЛЬМ-МАСТЕР]
Субтитры: Russian, English

Файл
Формат: Matroska
Качество: HDTVRip-AVC | Open Matte
Видео: 1024x576 (16x9) at 25.00 fps, [email protected], ~2324 kbps, 0.158 bpp
Аудио: AC3, 6 ch, ~448 kbps - | Русский | -
Формат субтитров: softsub (SRT)

***Релиз от:-=DoMiNo=-

M/I
General
Format : Matroska
Format version : Version 4
File size : 1.83 GiB
Duration : 1 h 34 min
Overall bit rate : 2 774 kb/s
Movie name : Дом у озера.(2006).HDTVRip-AVC.O.M.[-=DoMiNo=-]
Encoded date : UTC 2020-07-18 14:07:46
Writing application : mkvmerge v48.0.0 ('Fortress Around Your Heart') 64-bit
Writing library : libebml v1.4.0 + libmatroska v1.6.0
Cover : Yes
Attachments : Cover.jpg / Cover 2.jpg

Video
ID : 1
Format : AVC
Format/Info : Advanced Video Codec
Format profile : [email protected]
Format settings : CABAC / 12 Ref Frames
Format settings, CABAC : Yes
Format settings, Reference : 12 frames
Codec ID : V_MPEG4/ISO/AVC
Duration : 1 h 34 min
Bit rate : 2 324 kb/s
Width : 1 024 pixels
Height : 576 pixels
Display aspect ratio : 16:9
Frame rate mode : Constant
Frame rate : 25.000 FPS
Color space : YUV
Chroma subsampling : 4:2:0
Bit depth : 8 bits
Scan type : Progressive
Bits/(Pixel*Frame) : 0.158
Stream size : 1.53 GiB (84%)
Title : -=DoMiNo=- | Open Matte
Writing library : x264 core 161 r3018 db0d417
Encoding settings : cabac=1 / ref=12 / deblock=1:-3:-3 / analyse=0x3:0x133 / me=umh / subme=10 / psy=1 / psy_rd=1.00:0.15 / mixed_ref=1 / me_range=32 / chroma_me=1 / trellis=2 / 8x8dct=1 / cqm=0 / deadzone=21,11 / fast_pskip=0 / chroma_qp_offset=-3 / threads=6 / lookahead_threads=1 / sliced_threads=0 / nr=0 / decimate=1 / interlaced=0 / bluray_compat=0 / constrained_intra=0 / bframes=8 / b_pyramid=2 / b_adapt=2 / b_bias=0 / direct=1 / weightb=1 / open_gop=0 / weightp=2 / keyint=250 / keyint_min=25 / scenecut=40 / intra_refresh=0 / rc_lookahead=100 / rc=crf / mbtree=1 / crf=18.0 / qcomp=0.65 / qpmin=0 / qpmax=69 / qpstep=4 / vbv_maxrate=50000 / vbv_bufsize=62500 / crf_max=0.0 / nal_hrd=none / filler=0 / ip_ratio=1.40 / aq=1:1.00
Language : English
Default : Yes
Forced : No
Color range : Limited
Color primaries : BT.709
Transfer characteristics : BT.709
Matrix coefficients : BT.709

Audio
ID : 2
Format : AC-3
Format/Info : Audio Coding 3
Commercial name : Dolby Digital
Codec ID : A_AC3
Duration : 1 h 34 min
Bit rate mode : Constant
Bit rate : 448 kb/s
Channel(s) : 6 channels
Channel layout : L R C LFE Ls Rs
Sampling rate : 48.0 kHz
Frame rate : 31.250 FPS (1536 SPF)
Compression mode : Lossy
Delay relative to video : 40 ms
Stream size : 303 MiB (16%)
Title : DUB
Language : Russian
Service kind : Complete Main
Default : Yes
Forced : No

Text #1
ID : 3
Format : UTF-8
Codec ID : S_TEXT/UTF8
Codec ID/Info : UTF-8 Plain Text
Duration : 1 h 28 min
Bit rate : 90 b/s
Count of elements : 1093
Stream size : 58.4 KiB (0%)
Language : Russian
Default : No
Forced : No

Text #2
ID : 4
Format : UTF-8
Codec ID : S_TEXT/UTF8
Codec ID/Info : UTF-8 Plain Text
Duration : 1 h 28 min
Bit rate : 57 b/s
Count of elements : 1074
Stream size : 37.3 KiB (0%)
Language : English
Default : No
Forced : No

Menu
00:00:00.000 : :Глава 01
00:10:00.000 : :Глава 02
00:20:00.000 : :Глава 03
00:30:00.000 : :Глава 04
00:40:00.000 : :Глава 05
00:50:00.000 : :Глава 06
01:00:00.000 : :Глава 07
01:10:00.000 : :Глава 08
01:20:00.000 : :Глава 09
01:30:00.000 : :Глава 10
Примечание & Сравнения:
Open Matte-версия фильма имеет большее наполнение кадра по сравнению с Blu-ray.
[URL="http://www.framecompare.com/image-compare/screenshotcomparison/7KKPPNNX" target="_blank">***Сравнения => BD vs HDTV Open Matte
Скриншоты
 

Вложения

  • 74,3 KB Просмотры: 0
    Личеров 0
    Сидеров 0
    Файлов 1
    Объем 1,8 GB

Привет!

Мы группа людей которые решили помочь другим в решении их проблем, а так же пользователям с поиском самых свежих и качественных инфопродуктов. За 4 с небольшим месяца мы создали этот форум на который заходят ежедневно тысячи человек и посещаемость постоянно растёт. Мы создали панель лицензирования для защиты PHP скриптов от воровства и SEO панель для мониторинга наших сайтов и выбора верной стратегии их развития. Мы надеемся что то что мы создали пригодится Вам и возможно Вы поможете нам развиваться и совершенствоваться вместе с Вами.

Статистика форума

Темы
406.678
Сообщения
465.125
Пользователи
84.737
Новый пользователь
Mo0dak

Приложения форума для iOS и Android


У ркн там нет власти ;)
Приватные разговоры
Помощь Пользователи
    Вы не присоединились ни к одной комнате.