За последнюю неделю опубликовано 62 новых материалов.
Инструкция новичку Путеводитель по форуму Прокси для Telegram Показать подсказки , это бомба!

Скачать Дом Солнца (2009) BDRip 1080p от KORSAR бесплатно через торрент

  • Поучаствуй (в качестве покупателя) в любых пяти совместных покупках (кроме завершённых и "Моментальных") и получи группу "Новичок" навсегда -> ссылка на раздел
  • Получай до 480 рублей за каждого приглашенного пользователя!
    представляем Вам очередное расширение партнерской программы, подробности описаны тут -> ссылка
  • 90% материалов доступно к скачиванию после простой регистрации!
    Если же ты хочешь скачивать материалы без требования оставлять отзывы то получи группу "Новичок", 10 способов повышения описаны тут -> ссылка
  • К сожалению количество битых ссылок растет и мы уже не можем их оперативно восстанавливать поэтому просим помощи у каждого нашего пользователя.
    С сегодняшнего дня, за каждую восстановленную ссылку мы заплатим Вам.
    Подробнее тут -> ссылка
  • Перенесем твои заслуги с другого ресурса!
    Мы понимаем как сложно прокачивать аккаунты на форумах, вроде раскачал аккаунт, а тут появляется ресурс в 100 раз круче но тоже с системой прокачки и снова качать аккаунт...
    Предлагаем вам перенести Ваши заслуги на другом подобном ресурсе к нам.
    Подробности описаны тут -> ссылка
  • Вы можете получать по 2.5% с каждой покупки и продажи на маркете! Подробности в теме Партнёрская программа
Если Вы не хотите скачивать, Вы всегда можетепосмотретьонлайн, просто нажмите кнопку ниже :

Открыть плеер

Torrent_Bot

Торрент-Бот
Бот форума
4 Окт 2016
92
160
20


Информация о фильме
Название: Дом Солнца
Год выхода: 2009
Жанр: драма
Режиссер: Гарик Сукачев
В ролях: Светлана Иванова, Станислав Рядинский, Дарья Мороз, Иван Стебунов, Моисес Бланко, Кирилл Поликашин, Алексей Горбунов, Ольга Блок-Миримская, Александр Мохов, Анатолий Смиранин (III), Никита Высоцкий, Михаил Ефремов, Чулпан Хаматова, Нина Русланова

О фильме:
Это история 70-х годов прошлого века о дочери партийного работника, которую ждало светлое будущее и счастливая распланированная вперед жизнь. Но однажды Саша, так звали девушку, знакомится с совершенно новым миром хиппи, которые прославляют любовь и ненавидят власть. Она влюбляется в парня, которого зовут Солнце, и благодаря ему находит свет в своём сердце. Но не всё так безоблачно в жизни хиппи...



Страна: Россия
Студия: Топ Лайн Дистрибьюшн, Ялтинская киностудия
Продолжительность: 01:38:56
Перевод: Не требуется

Файл
Качество: BDRip 1080p
Формат: MKV
Видео: MPEG-4 AVC, 1920x818, 14.5 Мбит/с, 23.976 кадр/с
Звук:
Аудио1: Русская, AC3 640 Кбит/с, 6 канала(ов)
Субтитры: Нет
Навигация по главам: Есть

Mediainfo
x264 [info]: frame I:867 Avg QP:17.41 size:242586
x264 [info]: frame P:35041 Avg QP:18.96 size:138794
x264 [info]: frame B:106436 Avg QP:21.38 size: 53475
x264 [info]: consecutive B-frames: 2.7% 4.4% 11.3% 28.5% 21.3% 27.0% 3.0% 0.8% 0.4%

General
Unique ID : 325751610809161429265244317427639541705 (0xF5117A6948299F470BC75DB430885FC9)
Complete name : H:HDFILMSДом солнца (2009) BDRip 1080p - KORSAR.mkv
Format : Matroska
Format version : Version 4 / Version 2
File size : 10.5 GiB
Duration : 1 h 38 min
Overall bit rate : 15.1 Mb/s
Movie name : Дом солнца (2009)_rip_by_Cthulhu
Encoded date : UTC 2020-05-24 21:42:30
Writing application : mkvmerge v46.0.0 ('No Deeper Escape') 64-bit
Writing library : libebml v1.3.10 + libmatroska v1.5.2
Cover : Yes
Attachments : cover4.png

Video
ID : 1
Format : AVC
Format/Info : Advanced Video Codec
Format profile : [email protected]
Format settings : CABAC / 5 Ref Frames
Format settings, CABAC : Yes
Format settings, ReFrames : 5 frames
Codec ID : V_MPEG4/ISO/AVC
Duration : 1 h 38 min
Bit rate : 14.5 Mb/s
Width : 1 920 pixels
Height : 818 pixels
Display aspect ratio : 2.35:1
Frame rate mode : Constant
Frame rate : 23.976 (24000/1001) FPS
Color space : YUV
Chroma subsampling : 4:2:0
Bit depth : 8 bits
Scan type : Progressive
Bits/(Pixel*Frame) : 0.385
Stream size : 10.0 GiB (96%)
Writing library : x264 core 152 r2851kMod ba24899
Encoding settings : cabac=1 / ref=5 / deblock=1:-3:-3 / analyse=0x3:0x133 / me=umh / subme=11 / psy=1 / fade_compensate=0.00 / psy_rd=1.00:0.03 / mixed_ref=1 / me_range=48 / chroma_me=1 / trellis=2 / 8x8dct=1 / cqm=0 / deadzone=21,11 / fast_pskip=0 / chroma_qp_offset=-3 / threads=24 / lookahead_threads=4 / sliced_threads=0 / nr=0 / decimate=1 / interlaced=0 / bluray_compat=0 / constrained_intra=0 / bframes=8 / b_pyramid=2 / b_adapt=2 / b_bias=0 / direct=3 / weightb=1 / open_gop=0 / weightp=2 / keyint=240 / keyint_min=23 / scenecut=40 / intra_refresh=0 / rc_lookahead=60 / rc=crf / mbtree=0 / crf=18.0000 / qcomp=0.62 / qpmin=0 / qpmax=39 / qpstep=4 / vbv_maxrate=50000 / vbv_bufsize=62500 / crf_max=0.0 / nal_hrd=none / filler=0 / ip_ratio=1.40 / pb_ratio=1.30 / aq=3:0.80
Language : Russian
Default : Yes
Forced : No
Color range : Limited
Color primaries : BT.709
Transfer characteristics : BT.709
Matrix coefficients : BT.709

Audio
ID : 2
Format : AC-3
Format/Info : Audio Coding 3
Commercial name : Dolby Digital
Codec ID : A_AC3
Duration : 1 h 38 min
Bit rate mode : Constant
Bit rate : 640 kb/s
Channel(s) : 6 channels
Channel layout : L R C LFE Ls Rs
Sampling rate : 48.0 kHz
Frame rate : 31.250 FPS (1536 SPF)
Bit depth : 16 bits
Compression mode : Lossy
Stream size : 453 MiB (4%)
Language : Russian
Service kind : Complete Main
Default : Yes
Forced : No

Menu
00:00:00.000 : en:
00:04:46.452 : en:
00:09:29.527 : en:
00:15:45.986 : en:
00:21:46.430 : en:
00:28:15.735 : en:
00:34:57.720 : en:
00:42:31.632 : en:
00:49:33.512 : en:
00:55:59.606 : en:
01:02:11.519 : en:
01:07:55.321 : en:
01:13:53.137 : en:
01:19:32.309 : en:
01:25:05.141 : en:
01:32:36.676 : en:
01:38:56.847 : en:
Скриншоты

Релиз от: Cthulhu
 

Вложения

  • 53,4 KB Просмотры: 0
    Личеров 0
    Сидеров 0
    Файлов 1
    Объем 10,5 GB

Привет!

Мы группа людей которые решили помочь другим в решении их проблем, а так же пользователям с поиском самых свежих и качественных инфопродуктов. За 4 с небольшим месяца мы создали этот форум на который заходят ежедневно тысячи человек и посещаемость постоянно растёт. Мы создали панель лицензирования для защиты PHP скриптов от воровства и SEO панель для мониторинга наших сайтов и выбора верной стратегии их развития. Мы надеемся что то что мы создали пригодится Вам и возможно Вы поможете нам развиваться и совершенствоваться вместе с Вами.

Статистика форума

Темы
406.656
Сообщения
465.104
Пользователи
84.661
Новый пользователь
tomik

Приложения форума для iOS и Android


У ркн там нет власти ;)
Приватные разговоры
Помощь Пользователи
    Вы не присоединились ни к одной комнате.