За последнюю неделю опубликовано 51 новых материалов.
Инструкция новичку Путеводитель по форуму Прокси для Telegram Показать подсказки , это бомба!

Скачать Дом на Турецкой улице / The House on Turk Street (2002) BDRip 1080p | D бесплатно через торрент

  • Поучаствуй (в качестве покупателя) в любых пяти совместных покупках (кроме завершённых и "Моментальных") и получи группу "Новичок" навсегда -> ссылка на раздел
  • Получай до 480 рублей за каждого приглашенного пользователя!
    представляем Вам очередное расширение партнерской программы, подробности описаны тут -> ссылка
  • 90% материалов доступно к скачиванию после простой регистрации!
    Если же ты хочешь скачивать материалы без требования оставлять отзывы то получи группу "Новичок", 10 способов повышения описаны тут -> ссылка
  • К сожалению количество битых ссылок растет и мы уже не можем их оперативно восстанавливать поэтому просим помощи у каждого нашего пользователя.
    С сегодняшнего дня, за каждую восстановленную ссылку мы заплатим Вам.
    Подробнее тут -> ссылка
  • Перенесем твои заслуги с другого ресурса!
    Мы понимаем как сложно прокачивать аккаунты на форумах, вроде раскачал аккаунт, а тут появляется ресурс в 100 раз круче но тоже с системой прокачки и снова качать аккаунт...
    Предлагаем вам перенести Ваши заслуги на другом подобном ресурсе к нам.
    Подробности описаны тут -> ссылка
  • Вы можете получать по 2.5% с каждой покупки и продажи на маркете! Подробности в теме Партнёрская программа
Если Вы не хотите скачивать, Вы всегда можетепосмотретьонлайн, просто нажмите кнопку ниже :

Открыть плеер

Torrent_Bot

Торрент-Бот
Бот форума
4 Окт 2016
91
164
20
Дом на Турецкой улице / The House on Turk Street

Страна: Германия США
Производство: Remstar Corporation Inc., ApolloMedia, Kismet Entertainment Group, Seven Arts Pictures
Год выпуска: 2002
Жанр:боевик, триллер, драма, криминал, музыка
Продолжительность: 01:37:36

Режиссер: Боб Рейфелсон
Авторы сценария: Кристофер Кэйнан, Стив Барансик, Дэшил Хэммет

В ролях: Сэмюэл Л. Джексон, Милла Йовович, Стеллан Скарсгард, Даг Хатчисон, Джосс Экленд, Грейс Забриски, Джонатан Хиггинс, Роберт Уэлч

Описание: Фильм рассказывает о приключении полицейского детектива Джека, который пытается помочь своей приятельнице найти пропавшую дочь. Дружеская услуга превращается в кошмар. Имея всего лишь фотографию девочки и название улицы, Джек начинает расследование. Оказавшись заложником бандитов, Джек понимает, что главарём банды на самом деле управляет его красивая подружка Эрин. Ожидая увидеть перед собой властную и уверенную в себе женщину, Джек сталкивается с нежной и романтичной девушкой.

Действительно ли она так беззащитна, или просто управляет им, как и всеми остальными? Только финал откроет, чего стоит каждый из них...



Перевод: Профессиональный (полное дублирование)
Субтитры: нет


Качество: BDRip 1080p
Формат: МКV
Видео кодек: AVC
Аудио кодек: АС3
Видео: 1920x1080 (16:9), 23.976 fps, MPEG-4 AVC ~9 429 kbps avg
Аудио №1: 48.0 kHz, AC3 Dolby Digital, 2/0 (L,R) ch, ~192 kbps | RUS
Аудио №2: 48.0 kHz, AC3 Dolby Digital, 2/0 (L,R) ch, ~192 kbps | ENG

Дата премьеры (мир): 25 октября 2002
Дата премьеры (РФ): 9 января 2003, «Парадиз»

Media Info
General
Unique ID : 246949715029878345831479328571161631816 (0xB9C8C8FBE172652581CA5C385804DC48)
Complete name : No Good Deed (2002).mkv
Format : Matroska
Format version : Version 4 / Version 2
File size : 6.69 GiB
Duration : 1 h 37 min
Overall bit rate : 9 809 kb/s
Encoded date : UTC 2017-06-05 19:13:15
Writing application : mkvmerge v6.6.0 ('The Edge Of The In Between') built on Dec 1 2013 17:55:00
Writing library : libebml v1.3.0 + libmatroska v1.4.1

Video
ID : 1
Format : AVC
Format/Info : Advanced Video Codec
Format profile : [email protected]
Format settings, CABAC : Yes
Format settings, RefFrames : 4 frames
Codec ID : V_MPEG4/ISO/AVC
Duration : 1 h 37 min
Bit rate : 9 429 kb/s
Width : 1 920 pixels
Height : 1 080 pixels
Display aspect ratio : 16:9
Frame rate mode : Constant
Frame rate : 23.976 FPS
Color space : YUV
Chroma subsampling : 4:2:0
Bit depth : 8 bits
Scan type : Progressive
Bits/(Pixel*Frame) : 0.190
Stream size : 6.29 GiB (94%)
Writing library : x264 core 148 r2579 73ae2d1
Encoding settings : cabac=1 / ref=4 / deblock=1:0:0 / analyse=0x3:0x133 / me=umh / subme=7 / psy=1 / psy_rd=1.00:0.00 / mixed_ref=1 / me_range=16 / chroma_me=1 / trellis=1 / 8x8dct=1 / cqm=0 / deadzone=21,11 / fast_pskip=0 / chroma_qp_offset=-2 / threads=34 / lookahead_threads=5 / sliced_threads=0 / nr=0 / decimate=1 / interlaced=0 / bluray_compat=0 / constrained_intra=0 / bframes=3 / b_pyramid=2 / b_adapt=2 / b_bias=0 / direct=3 / weightb=1 / open_gop=0 / weightp=2 / keyint=250 / keyint_min=23 / scenecut=40 / intra_refresh=0 / rc_lookahead=50 / rc=2pass / mbtree=1 / bitrate=9429 / ratetol=1.0 / qcomp=0.60 / qpmin=0 / qpmax=69 / qpstep=4 / cplxblur=20.0 / qblur=0.5 / ip_ratio=1.40 / aq=1:1.00
Language : English
Default : Yes
Forced : No
Statistics Tags Issue : mkvmerge v8.0.0 ('Til The Day That I Die') 64bit 2015-08-11 21:59:57 / mkvmerge v6.6.0 ('The Edge Of The In Between') built on Dec 1 2013 17:55:00 2017-06-05 19:13:15
FromStats_BitRate : 9423328
FromStats_Duration : 01:37:35.776000000
FromStats_FrameCount : 140398
FromStats_StreamSize : 6897612612

Audio #1
ID : 2
Format : AC-3
Format/Info : Audio Coding 3
Format settings, Endianness : Big
Codec ID : A_AC3
Duration : 1 h 37 min
Bit rate mode : Constant
Bit rate : 192 kb/s
Channel(s) : 2 channels
Channel positions : Front: L R
Sampling rate : 48.0 kHz
Frame rate : 31.250 FPS (1536 SPF)
Bit depth : 16 bits
Compression mode : Lossy
Stream size : 134 MiB (2%)
Title : Dub
Language : Russian
Service kind : Complete Main
Default : Yes
Forced : No

Audio #2
ID : 3
Format : AC-3
Format/Info : Audio Coding 3
Format settings, Endianness : Big
Codec ID : A_AC3
Duration : 1 h 37 min
Bit rate mode : Constant
Bit rate : 192 kb/s
Channel(s) : 2 channels
Channel positions : Front: L R
Sampling rate : 48.0 kHz
Frame rate : 31.250 FPS (1536 SPF)
Bit depth : 16 bits
Compression mode : Lossy
Stream size : 134 MiB (2%)
Language : English
Service kind : Complete Main
Default : No
Forced : No
Statistics Tags Issue : mkvmerge v8.0.0 ('Til The Day That I Die') 64bit 2015-08-11 21:59:57 / mkvmerge v6.6.0 ('The Edge Of The In Between') built on Dec 1 2013 17:55:00 2017-06-05 19:13:15
FromStats_BitRate : 192000
FromStats_Duration : 01:37:35.872000000
FromStats_FrameCount : 182996
FromStats_StreamSize : 140540928

Menu
00:00:00.000 : en:00:00:00.000
00:24:24.046 : en:00:24:24.046
00:46:12.269 : en:00:46:12.269
01:22:09.675 : en:01:22:09.675
01:33:58.508 : en:01:33:58.508
Скриншоты
 

Вложения

  • 34,3 KB Просмотры: 1
    Личеров 0
    Сидеров 0
    Файлов 1
    Объем 6,7 GB

Привет!

Мы группа людей которые решили помочь другим в решении их проблем, а так же пользователям с поиском самых свежих и качественных инфопродуктов. За 4 с небольшим месяца мы создали этот форум на который заходят ежедневно тысячи человек и посещаемость постоянно растёт. Мы создали панель лицензирования для защиты PHP скриптов от воровства и SEO панель для мониторинга наших сайтов и выбора верной стратегии их развития. Мы надеемся что то что мы создали пригодится Вам и возможно Вы поможете нам развиваться и совершенствоваться вместе с Вами.

Статистика форума

Темы
410.572
Сообщения
469.128
Пользователи
86.229
Новый пользователь
bie

Приложения форума для iOS и Android


У ркн там нет власти ;)
Приватные разговоры
Помощь Пользователи
    Вы не присоединились ни к одной комнате.