За последнюю неделю опубликовано 85 новых материалов.
Инструкция новичку Путеводитель по форуму Прокси для Telegram Показать подсказки , это бомба!

Скачать Доктор Сон / Doctor Sleep (2019) UHD BDRip 720p от селезень | Театральная версия | Лицензия бесплатно через торрент

  • Поучаствуй (в качестве покупателя) в любых пяти совместных покупках (кроме завершённых и "Моментальных") и получи группу "Новичок" навсегда -> ссылка на раздел
  • Получай до 480 рублей за каждого приглашенного пользователя!
    представляем Вам очередное расширение партнерской программы, подробности описаны тут -> ссылка
  • 90% материалов доступно к скачиванию после простой регистрации!
    Если же ты хочешь скачивать материалы без требования оставлять отзывы то получи группу "Новичок", 10 способов повышения описаны тут -> ссылка
  • К сожалению количество битых ссылок растет и мы уже не можем их оперативно восстанавливать поэтому просим помощи у каждого нашего пользователя.
    С сегодняшнего дня, за каждую восстановленную ссылку мы заплатим Вам.
    Подробнее тут -> ссылка
  • Перенесем твои заслуги с другого ресурса!
    Мы понимаем как сложно прокачивать аккаунты на форумах, вроде раскачал аккаунт, а тут появляется ресурс в 100 раз круче но тоже с системой прокачки и снова качать аккаунт...
    Предлагаем вам перенести Ваши заслуги на другом подобном ресурсе к нам.
    Подробности описаны тут -> ссылка
  • Вы можете получать по 2.5% с каждой покупки и продажи на маркете! Подробности в теме Партнёрская программа
Если Вы не хотите скачивать, Вы всегда можетепосмотретьонлайн, просто нажмите кнопку ниже :

Открыть плеер

Torrent_Bot

Торрент-Бот
Бот форума
4 Окт 2016
102
152
20


Информация о фильме
Название: Доктор Сон
Оригинальное название: Doctor Sleep
Год выхода: 2019
Жанр: Ужасы, фэнтези, триллер, драма
Режиссер: Майк Флэнеган
В ролях: Юэн Макгрегор, Ребекка Фергюсон (II), Дэнни Ллойд, Карел Стрёйкен, Джейкоб Трамбле, Эмили Элин Линд, Зан Маккларнон, Клифф Кёртис, Брюс Гринвуд, Александра Эссоу, Кайли Кёрран, Карл Ламбли, Закари Момо



О фильме: Прошло много лет с тех пор, как мальчик-ясновидец Дэнни Торранс пережил кошмарный сезон в отеле «Оверлук», где стал свидетелем безумия и гибели своего отца. Повзрослев, но не оправившись от детской травмы, Дэнни ведёт жизнь маргинала-алкоголика. С ним устанавливает связь другая «сияющая» девочка, Абра. Ей потребуется помощь Дэнни, чтобы не стать жертвой так называемого «Истинного Узла» - группы охотников за одарёнными детьми.

Страна: США, Великобритания
Студия: Warner Bros., Intrepid Pictures, Vertigo Entertainment
Продолжительность: 02:32:01
Перевод: Дублированный | Лицензия

Качество: BDRip 720p
Видео: MPEG-4 AVC, 1280x692, 5500 Kbit/s, 23.976 fps
Аудио #01: 48 kHz, AC3, 5.1, 448 Kbps | Дублированный | RUS |
Аудио #02: 48 kHz, AC3, 2.0, 192 Kbps | Дублированный | UKR |
Аудио #03: 48 kHz, AC3, 5.1, 640 Kbps | Оригинал | ENG |
Субтитры: Русские (Forced, full), украинские (Forced), английские



MI
General
Unique ID : 42490952553362713086829125902162252218 (0x1FF775B4B81C34511EDBE68991ACD1BA)
Complete name : E:Video111Doctor.Sleep.2019.UHD.BDRip.720p.seleZen.mkv
Format : Matroska
Format version : Version 4
File size : 7.20 GiB
Duration : 2 h 32 min
Overall bit rate : 6 780 kb/s
Movie name : Doctor Sleep 2019 UHD BDRip 1080p from селезень
Encoded date : UTC 2020-01-26 20:34:03
Writing application : mkvmerge v40.0.0 ('Old Town Road + Pony') 64-bit
Writing library : libebml v1.3.9 + libmatroska v1.5.2

Video
ID : 1
Format : AVC
Format/Info : Advanced Video Codec
Format profile : High@L4.1
Format settings : CABAC / 9 Ref Frames
Format settings, CABAC : Yes
Format settings, Reference : 9 frames
Codec ID : V_MPEG4/ISO/AVC
Duration : 2 h 32 min
Bit rate : 5 500 kb/s
Width : 1 280 pixels
Height : 692 pixels
Display aspect ratio : 1.85:1
Frame rate mode : Constant
Frame rate : 23.976 (24000/1001) FPS
Color space : YUV
Chroma subsampling : 4:2:0
Bit depth : 8 bits
Scan type : Progressive
Bits/(Pixel*Frame) : 0.259
Stream size : 5.84 GiB (81%)
Title : Encoded by seleZen
Writing library : x264 core 159 r2991 1771b55
Encoding settings : cabac=1 / ref=9 / deblock=1:-2:-2 / analyse=0x3:0x133 / me=umh / subme=10 / psy=1 / psy_rd=1.00:0.00 / mixed_ref=1 / me_range=32 / chroma_me=1 / trellis=2 / 8x8dct=1 / cqm=0 / deadzone=21,11 / fast_pskip=0 / chroma_qp_offset=-2 / threads=22 / lookahead_threads=3 / sliced_threads=0 / nr=0 / decimate=0 / interlaced=0 / bluray_compat=0 / constrained_intra=0 / bframes=8 / b_pyramid=2 / b_adapt=2 / b_bias=0 / direct=3 / weightb=1 / open_gop=0 / weightp=2 / keyint=240 / keyint_min=24 / scenecut=40 / intra_refresh=0 / rc_lookahead=60 / rc=2pass / mbtree=0 / bitrate=5500 / ratetol=1.0 / qcomp=0.60 / qpmin=0 / qpmax=51 / qpstep=4 / cplxblur=20.0 / qblur=0.5 / vbv_maxrate=50000 / vbv_bufsize=62500 / nal_hrd=none / filler=0 / ip_ratio=1.40 / pb_ratio=1.30 / aq=3:0.80
Language : English
Default : Yes
Forced : No
Color range : Limited
Color primaries : BT.709
Transfer characteristics : BT.709
Matrix coefficients : BT.709

Audio #1
ID : 2
Format : AC-3
Format/Info : Audio Coding 3
Commercial name : Dolby Digital
Codec ID : A_AC3
Duration : 2 h 32 min
Bit rate mode : Constant
Bit rate : 448 kb/s
Channel(s) : 6 channels
Channel layout : L R C LFE Ls Rs
Sampling rate : 48.0 kHz
Frame rate : 31.250 FPS (1536 SPF)
Compression mode : Lossy
Stream size : 487 MiB (7%)
Title : Dub [License]
Language : Russian
Service kind : Complete Main
Default : Yes
Forced : Yes

Audio #2
ID : 3
Format : AC-3
Format/Info : Audio Coding 3
Commercial name : Dolby Digital
Codec ID : A_AC3
Duration : 2 h 32 min
Bit rate mode : Constant
Bit rate : 192 kb/s
Channel(s) : 2 channels
Channel layout : L R
Sampling rate : 48.0 kHz
Frame rate : 31.250 FPS (1536 SPF)
Compression mode : Lossy
Stream size : 209 MiB (3%)
Title : iTunes
Language : Ukrainian
Service kind : Complete Main
Default : No
Forced : No

Audio #3
ID : 4
Format : AC-3
Format/Info : Audio Coding 3
Commercial name : Dolby Digital
Codec ID : A_AC3
Duration : 2 h 32 min
Bit rate mode : Constant
Bit rate : 640 kb/s
Channel(s) : 6 channels
Channel layout : L R C LFE Ls Rs
Sampling rate : 48.0 kHz
Frame rate : 31.250 FPS (1536 SPF)
Compression mode : Lossy
Stream size : 696 MiB (9%)
Title : Original
Language : English
Service kind : Complete Main
Default : No
Forced : No

Text #1
ID : 5
Format : UTF-8
Codec ID : S_TEXT/UTF8
Codec ID/Info : UTF-8 Plain Text
Duration : 2 h 14 min
Bit rate : 1 b/s
Count of elements : 42
Stream size : 1.47 KiB (0%)
Title : Forced
Language : Russian
Default : Yes
Forced : Yes

Text #2
ID : 6
Format : UTF-8
Codec ID : S_TEXT/UTF8
Codec ID/Info : UTF-8 Plain Text
Duration : 2 h 25 min
Bit rate : 60 b/s
Count of elements : 1656
Stream size : 64.7 KiB (0%)
Title : Full
Language : Russian
Default : No
Forced : No

Text #3
ID : 7
Format : UTF-8
Codec ID : S_TEXT/UTF8
Codec ID/Info : UTF-8 Plain Text
Duration : 2 h 14 min
Bit rate : 1 b/s
Count of elements : 43
Stream size : 1.74 KiB (0%)
Title : Forced
Language : Ukrainian
Default : No
Forced : No

Text #4
ID : 8
Format : UTF-8
Codec ID : S_TEXT/UTF8
Codec ID/Info : UTF-8 Plain Text
Duration : 2 h 25 min
Bit rate : 37 b/s
Count of elements : 1693
Stream size : 39.7 KiB (0%)
Title : Full
Language : English
Default : No
Forced : No

Text #5
ID : 9
Format : UTF-8
Codec ID : S_TEXT/UTF8
Codec ID/Info : UTF-8 Plain Text
Duration : 2 h 25 min
Bit rate : 42 b/s
Count of elements : 1943
Stream size : 45.4 KiB (0%)
Title : SDH
Language : English
Default : No
Forced : No

Menu
00:00:00.000 : en:Chapter 01
00:10:36.302 : en:Chapter 02
00:19:44.350 : en:Chapter 03
00:29:23.345 : en:Chapter 04
00:39:51.931 : en:Chapter 05
00:49:47.318 : en:Chapter 06
00:58:24.710 : en:Chapter 07
01:06:00.748 : en:Chapter 08
01:11:00.756 : en:Chapter 09
01:20:35.497 : en:Chapter 10
01:27:07.013 : en:Chapter 11
01:35:13.458 : en:Chapter 12
01:44:01.902 : en:Chapter 13
01:52:52.724 : en:Chapter 14
02:01:22.734 : en:Chapter 15
02:08:01.507 : en:Chapter 16
02:17:27.156 : en:Chapter 17
02:23:06.703 : en:Chapter 18
02:26:22.107 : en:Chapter 19

Релиз от:

 

Вложения

  • 10 KB Просмотры: 0
    Личеров 0
    Сидеров 0
    Файлов 1
    Объем 7,2 GB

Привет!

Мы группа людей которые решили помочь другим в решении их проблем, а так же пользователям с поиском самых свежих и качественных инфопродуктов. За 4 с небольшим месяца мы создали этот форум на который заходят ежедневно тысячи человек и посещаемость постоянно растёт. Мы создали панель лицензирования для защиты PHP скриптов от воровства и SEO панель для мониторинга наших сайтов и выбора верной стратегии их развития. Мы надеемся что то что мы создали пригодится Вам и возможно Вы поможете нам развиваться и совершенствоваться вместе с Вами.

Статистика форума

Темы
404.590
Сообщения
461.469
Пользователи
80.290
Новый пользователь
khlkkk

Приложения форума для iOS и Android


У ркн там нет власти ;)
Приватные разговоры
Помощь Пользователи
    Вы не присоединились ни к одной комнате.