За последнюю неделю опубликовано 97 новых материалов.
Инструкция новичку Путеводитель по форуму Прокси для Telegram Показать подсказки , это бомба!

Скачать Доктор Дулиттл 2 / Dr. Dolittle 2 (2001) WEB-DLRip 720p от SuperMin | D | Open Matte бесплатно через торрент

  • Поучаствуй (в качестве покупателя) в любых пяти совместных покупках (кроме завершённых и "Моментальных") и получи группу "Новичок" навсегда -> ссылка на раздел
  • Получай до 480 рублей за каждого приглашенного пользователя!
    представляем Вам очередное расширение партнерской программы, подробности описаны тут -> ссылка
  • 90% материалов доступно к скачиванию после простой регистрации!
    Если же ты хочешь скачивать материалы без требования оставлять отзывы то получи группу "Новичок", 10 способов повышения описаны тут -> ссылка
  • К сожалению количество битых ссылок растет и мы уже не можем их оперативно восстанавливать поэтому просим помощи у каждого нашего пользователя.
    С сегодняшнего дня, за каждую восстановленную ссылку мы заплатим Вам.
    Подробнее тут -> ссылка
  • Перенесем твои заслуги с другого ресурса!
    Мы понимаем как сложно прокачивать аккаунты на форумах, вроде раскачал аккаунт, а тут появляется ресурс в 100 раз круче но тоже с системой прокачки и снова качать аккаунт...
    Предлагаем вам перенести Ваши заслуги на другом подобном ресурсе к нам.
    Подробности описаны тут -> ссылка
  • Вы можете получать по 2.5% с каждой покупки и продажи на маркете! Подробности в теме Партнёрская программа
Если Вы не хотите скачивать, Вы всегда можетепосмотретьонлайн, просто нажмите кнопку ниже :

Открыть плеер

Torrent_Bot

Торрент-Бот
Бот форума
4 Окт 2016
124
96
20



Информация о фильме
Название: Доктор Дулиттл 2
Оригинальное название: Dr. Dolittle 2
Год выхода: 2001
Жанр:комедия, фэнтези, мелодрама
Режиссер: Стив Карр
В ролях: Эдди Мёрфи, Кристен Уилсон, Рэйвен, Кайла Прэтт, Лиль Зейн, Дениз Дауз, Джеймс Эйври, Элэйн Тэйлор, Энди Рихтер, Кевин Поллак




Эдди Мерфи возвращается на экраны в роли доктора, умеющего разговаривать с животными. Но теперь его четвероногим пациентам недостаточно приемов в больнице - им надо спасать свой лес от людей, которые уничтожают его. И кто им поможет? Конечно же, он - верный друг и защитник лесного народа. Для этого доктору надо обустроить интимную жизнь двух бурых медведей. Непростое это занятие - быть семейным консультантом у этих огромных, непоседливых, но в то же время милых и очаровательных тварей. На то, чтобы научить циркового медведя жить в дикой природе и полюбить новую подругу, Дулиттлу отпущено всего три недели.





Страна: США
Продолжительность: 01:27:22
Перевод: Дубляж

Файл
Кодек: H.264
Качество: WEB-DLRip 720p от SuperMin
Видео: 1280x720 (16:9), 3409 kbps, 23.976 fps
Звук: Русский (AC-3, 6ch, 448 kbps)
Оригинал (AC-3, 6ch, 640 kbps)
Субтитры: русские, английские



MI
x264 [info]: frame I:1238 Avg QP:17.69 size:131234
x264 [info]: frame P:32486 Avg QP:19.20 size: 42085
x264 [info]: frame B:91971 Avg QP:21.88 size: 7662
x264 [info]: consecutive B-frames: 4.4% 7.9% 10.9% 17.2% 22.4% 32.9% 3.0% 0.8% 0.4%
x264 [total]: encoded 125695 frames, 8.51 fps, 3409.47 kb/s

General
Unique ID : 291158038605381271458322966212258278767 (0xDB0AFF9E58895C17272E97A99D63AD6F)
Complete name : F:ФИЛЬМЫДоктор Дулиттл 2 (Open Matte) WEB-DLRip 720p.mkv
Format : Matroska
Format version : Version 4
File size : 2.75 GiB
Duration : 1 h 27 min
Overall bit rate : 4 500 kb/s
Movie name : Доктор Дулиттл 2 / Dr. Dolittle 2 (2001) (Open Matte) - #LORDKILL#
Encoded date : UTC 2019-11-27 18:18:20
Writing application : mkvmerge v32.0.0 ('Astral Progressions') 64-bit
Writing library : libebml v1.3.7 + libmatroska v1.5.0

Video
ID : 1
Format : AVC
Format/Info : Advanced Video Codec
Format profile : High@L4.1
Format settings : CABAC / 9 Ref Frames
Format settings, CABAC : Yes
Format settings, Reference : 9 frames
Codec ID : V_MPEG4/ISO/AVC
Duration : 1 h 27 min
Bit rate : 3 409 kb/s
Width : 1 280 pixels
Height : 720 pixels
Display aspect ratio : 16:9
Frame rate mode : Constant
Frame rate : 23.976 (24000/1001) FPS
Color space : YUV
Chroma subsampling : 4:2:0
Bit depth : 8 bits
Scan type : Progressive
Bits/(Pixel*Frame) : 0.154
Stream size : 2.08 GiB (76%)
Writing library : x264 core 146 r2538 121396c
Encoding settings : cabac=1 / ref=9 / deblock=1:-1:-1 / analyse=0x3:0x113 / me=umh / subme=10 / psy=1 / psy_rd=1.00:0.15 / mixed_ref=1 / me_range=32 / chroma_me=1 / trellis=2 / 8x8dct=1 / cqm=0 / deadzone=21,11 / fast_pskip=0 / chroma_qp_offset=-3 / threads=12 / lookahead_threads=2 / sliced_threads=0 / nr=0 / decimate=1 / interlaced=0 / bluray_compat=0 / constrained_intra=0 / bframes=8 / b_pyramid=2 / b_adapt=2 / b_bias=0 / direct=1 / weightb=1 / open_gop=0 / weightp=2 / keyint=240 / keyint_min=23 / scenecut=40 / intra_refresh=0 / rc=crf / mbtree=0 / crf=19.0 / qcomp=0.60 / qpmin=0 / qpmax=69 / qpstep=4 / ip_ratio=1.40 / pb_ratio=1.30 / aq=1:1.00
Language : English
Default : Yes
Forced : No

Audio #1
ID : 2
Format : AC-3
Format/Info : Audio Coding 3
Commercial name : Dolby Digital
Codec ID : A_AC3
Duration : 1 h 27 min
Bit rate mode : Constant
Bit rate : 448 kb/s
Channel(s) : 6 channels
Channel layout : L R C LFE Ls Rs
Sampling rate : 48.0 kHz
Frame rate : 31.250 FPS (1536 SPF)
Bit depth : 16 bits
Compression mode : Lossy
Stream size : 280 MiB (10%)
Title : Дубляж
Language : Russian
Service kind : Complete Main
Default : Yes
Forced : No

Audio #2
ID : 3
Format : E-AC-3
Format/Info : Enhanced AC-3
Commercial name : Dolby Digital Plus
Codec ID : A_EAC3
Duration : 1 h 27 min
Bit rate mode : Constant
Bit rate : 640 kb/s
Channel(s) : 6 channels
Channel layout : L R C LFE Ls Rs
Sampling rate : 48.0 kHz
Frame rate : 31.250 FPS (1536 SPF)
Compression mode : Lossy
Stream size : 400 MiB (14%)
Language : English
Service kind : Complete Main
Default : No
Forced : No

Text #1
ID : 4
Format : UTF-8
Codec ID : S_TEXT/UTF8
Codec ID/Info : UTF-8 Plain Text
Duration : 1 h 20 min
Bit rate : 166 b/s
Count of elements : 1585
Stream size : 98.0 KiB (0%)
Language : Russian
Default : No
Forced : No

Text #2
ID : 5
Format : UTF-8
Codec ID : S_TEXT/UTF8
Codec ID/Info : UTF-8 Plain Text
Duration : 1 h 26 min
Bit rate : 117 b/s
Count of elements : 1668
Stream size : 74.8 KiB (0%)
Language : English
Default : No
Forced : No
Скриншоты
 

Вложения

  • 14,7 KB Просмотры: 0
    Личеров 0
    Сидеров 0
    Файлов 1
    Объем 2,7 GB
Ваш e-mail не будет опубликован. Он потребуется для подтверждения Вашего поста.
Оформление текста Нажмите «Ввод», чтобы отправить ответ.

Привет!

Мы группа людей которые решили помочь другим в решении их проблем, а так же пользователям с поиском самых свежих и качественных инфопродуктов. За 4 с небольшим месяца мы создали этот форум на который заходят ежедневно тысячи человек и посещаемость постоянно растёт. Мы создали панель лицензирования для защиты PHP скриптов от воровства и SEO панель для мониторинга наших сайтов и выбора верной стратегии их развития. Мы надеемся что то что мы создали пригодится Вам и возможно Вы поможете нам развиваться и совершенствоваться вместе с Вами.

Статистика форума

Темы
378.778
Сообщения
418.232
Пользователи
50.152
Новый пользователь
akaterk

Приложения форума для iOS и Android


У ркн там нет власти ;)
Приватные разговоры
Помощь Пользователи
    Вы не присоединились ни к одной комнате.