За последнюю неделю опубликовано 151 новых материалов.
Инструкция новичку Путеводитель по форуму Прокси для Telegram Показать подсказки , это бомба!

Скачать Доказательство жизни / Proof of life (2000) WEB-DLRip-AVC | D | Open Matte бесплатно через торрент

  • Поучаствуй (в качестве покупателя) в любых пяти совместных покупках (кроме завершённых и "Моментальных") и получи группу "Новичок" навсегда -> ссылка на раздел
  • Получай до 480 рублей за каждого приглашенного пользователя!
    представляем Вам очередное расширение партнерской программы, подробности описаны тут -> ссылка
  • 90% материалов доступно к скачиванию после простой регистрации!
    Если же ты хочешь скачивать материалы без требования оставлять отзывы то получи группу "Новичок", 10 способов повышения описаны тут -> ссылка
  • К сожалению количество битых ссылок растет и мы уже не можем их оперативно восстанавливать поэтому просим помощи у каждого нашего пользователя.
    С сегодняшнего дня, за каждую восстановленную ссылку мы заплатим Вам.
    Подробнее тут -> ссылка
  • Перенесем твои заслуги с другого ресурса!
    Мы понимаем как сложно прокачивать аккаунты на форумах, вроде раскачал аккаунт, а тут появляется ресурс в 100 раз круче но тоже с системой прокачки и снова качать аккаунт...
    Предлагаем вам перенести Ваши заслуги на другом подобном ресурсе к нам.
    Подробности описаны тут -> ссылка
  • Вы можете получать по 2.5% с каждой покупки и продажи на маркете! Подробности в теме Партнёрская программа
Если Вы не хотите скачивать, Вы всегда можетепосмотретьонлайн, просто нажмите кнопку ниже :

Открыть плеер

Torrent_Bot

Торрент-Бот
Бот форума
4 Окт 2016
124
92
20


Информация о фильме
Название: Доказательство жизни
Оригинальное название: Proof of Life
Год выпуска: 2000
Жанр: боевик, триллер, драма
Режиссер: Тейлор Хэкфорд
В ролях: Мег Райан, Расселл Кроу, Дэвид Морс, Памела Рид, Дэвид Карузо, Энтони Хилд, Стенли Андерсон, Готтфрид Йон, Алан Армстронг, Майкл Кичен, Марго Мартиндейл, Марио Эрнесто Санчез, Пьетро Сибилье, Вики Эрнандес, Норма Мартинез, Диего Тружильо, Аристотелес Пичо, Сарахи Эчеверриа, Карлос Бланчард, Рауль Родригез, Мауро Куева, Алехандро Кордова, Сандро Беллидо, Мигель Айза, Роберто Фрисон, Тони Васкез, Клаудия Даммерт, Роуэна Кинг, Майкл Бирн, Джейм Севайос, Джилберто Торрес, Дмитрий Шевченко

О фильме:
Терри Торн сумел выкупить заложника Пьера Ленуа на территории Чечни, утерев нос федералам, которые настаивали на том, чтобы самостоятельно осуществить выкуп. Терри — парень не простой; владеет всеми видами оружия, знает несколько языков, является хорошим переговорщиком и психологом. Он занимается освобождением заложников, если есть «доказательство жизни». А застраховать свою жизнь в странах с «горячими точками» стоит дорого. Еще больше выплачивается страховой компанией лицу, указанному в страховом полисе получателем. Продемонстрировав, как ловко Терри действовал в Чечне, авторы фильма переносят место действия в Южную Америку. Там захватом заложников и грабежами занимаются повстанцы. И для очередного освобождения заложников правительство обращается за помощью к Терри.



Выпущено: США, Anvil Films, Bel Air Entertainment
Продолжительность: 02:15:22
Перевод: Дублированный
Субтитры: Русские, английские

Файл
Формат: Matroska
Качество: WEB-DLRip-AVC | Open Matte
Видео: 1016x574 at 23.976 fps, x264, ~1923 kbps, 0.138 bpp
Аудио: AC3, 6 ch, ~384 kbps - | Русский | -
Формат субтитров: softsub (SRT)
Навигация по главам: есть

***Релиз от:-=DoMiNo=-

M/I
x264 info: frame I:1897 Avg QP:18.13 size: 57570
x264 info: frame P:51725 Avg QP:19.49 size: 20979
x264 info: frame B:141070 Avg QP:21.00 size: 5298
x264 info: consecutive B-frames: 3.6% 4.6% 7.9% 57.3% 10.0% 13.6% 1.5% 0.9% 0.3% 0.3% 0.0% 0.1% 0.0%

General
Format : Matroska
Format version : Version 4
File size : 2.18 GiB
Duration : 2 h 15 min
Overall bit rate : 2 310 kb/s
Movie name : Доказательство жизни.(2000).WEB-DLRip-AVC.O.M.[-=DoMiNo=-]
Attachments : poster / poster
Language : und

Video
ID : 1
Format : AVC
Format/Info : Advanced Video Codec
Format profile : High@L4.1
Format settings : CABAC / 12 Ref Frames
Format settings, CABAC : Yes
Format settings, Reference : 12 frames
Codec ID : V_MPEG4/ISO/AVC
Duration : 2 h 15 min
Bit rate : 1 923 kb/s
Width : 1 016 pixels
Height : 574 pixels
Display aspect ratio : 16:9
Frame rate mode : Constant
Frame rate : 23.976 (24000/1001) FPS
Color space : YUV
Chroma subsampling : 4:2:0
Bit depth : 8 bits
Scan type : Progressive
Bits/(Pixel*Frame) : 0.138
Stream size : 1.78 GiB (81%)
Title : RIP_BY_-=DoMiNo=-
Writing library : x264 core 157 r2958 57baac4
Encoding settings : cabac=1 / ref=12 / deblock=1:-2:-2 / analyse=0x3:0x133 / me=umh / subme=11 / psy=1 / psy_rd=1.00:0.00 / mixed_ref=1 / me_range=32 / chroma_me=1 / trellis=2 / 8x8dct=1 / cqm=0 / deadzone=21,11 / fast_pskip=0 / chroma_qp_offset=-2 / threads=6 / lookahead_threads=1 / sliced_threads=0 / nr=0 / decimate=0 / interlaced=0 / bluray_compat=0 / constrained_intra=0 / bframes=12 / b_pyramid=2 / b_adapt=2 / b_bias=0 / direct=3 / weightb=1 / open_gop=0 / weightp=2 / keyint=240 / keyint_min=24 / scenecut=40 / intra_refresh=0 / rc_lookahead=60 / rc=2pass / mbtree=0 / bitrate=1923 / ratetol=1.0 / qcomp=0.70 / qpmin=0 / qpmax=69 / qpstep=4 / cplxblur=20.0 / qblur=0.5 / vbv_maxrate=50000 / vbv_bufsize=62500 / nal_hrd=none / filler=0 / ip_ratio=1.40 / pb_ratio=1.30 / aq=3:0.80
Default : Yes
Forced : No
Color range : Limited
Color primaries : BT.709
Transfer characteristics : BT.709
Matrix coefficients : BT.709

Audio
ID : 2
Format : AC-3
Format/Info : Audio Coding 3
Commercial name : Dolby Digital
Codec ID : A_AC3
Duration : 2 h 15 min
Bit rate mode : Constant
Bit rate : 384 kb/s
Channel(s) : 6 channels
Channel layout : L R C LFE Ls Rs
Sampling rate : 48.0 kHz
Frame rate : 31.250 FPS (1536 SPF)
Bit depth : 32 bits
Compression mode : Lossy
Stream size : 372 MiB (17%)
Title : Дубляж
Language : Russian
Service kind : Complete Main
Default : Yes
Forced : No

Text #1
ID : 3
Format : UTF-8
Codec ID : S_TEXT/UTF8
Codec ID/Info : UTF-8 Plain Text
Language : Russian
Default : Yes
Forced : No

Text #2
ID : 4
Format : UTF-8
Codec ID : S_TEXT/UTF8
Codec ID/Info : UTF-8 Plain Text
Language : English
Default : No
Forced : No

Menu
00:00:00.000 : :(Unnamed scene)
00:00:42.000 : :(Unnamed scene)
00:06:53.000 : :(Unnamed scene)
00:08:54.000 : :(Unnamed scene)
00:12:36.000 : :(Unnamed scene)
00:16:03.000 : :(Unnamed scene)
00:19:54.000 : :(Unnamed scene)
00:22:51.000 : :(Unnamed scene)
00:26:55.000 : :(Unnamed scene)
00:31:30.000 : :(Unnamed scene)
00:35:04.000 : :(Unnamed scene)
00:37:29.000 : :(Unnamed scene)
00:40:12.000 : :(Unnamed scene)
00:43:06.000 : :(Unnamed scene)
00:46:27.000 : :(Unnamed scene)
00:49:18.000 : :(Unnamed scene)
00:54:20.000 : :(Unnamed scene)
00:58:10.000 : :(Unnamed scene)
01:02:25.000 : :(Unnamed scene)
01:04:25.000 : :(Unnamed scene)
01:06:33.000 : :(Unnamed scene)
01:09:12.000 : :(Unnamed scene)
01:12:36.000 : :(Unnamed scene)
01:16:09.000 : :(Unnamed scene)
01:17:14.000 : :(Unnamed scene)
01:22:32.000 : :(Unnamed scene)
01:24:49.000 : :(Unnamed scene)
01:28:13.000 : :(Unnamed scene)
01:31:58.000 : :(Unnamed scene)
01:34:50.000 : :(Unnamed scene)
01:37:27.000 : :(Unnamed scene)
01:40:54.000 : :(Unnamed scene)
01:45:03.000 : :(Unnamed scene)
01:46:43.000 : :(Unnamed scene)
01:50:39.000 : :(Unnamed scene)
01:54:12.000 : :(Unnamed scene)
01:57:54.000 : :(Unnamed scene)
02:00:38.000 : :(Unnamed scene)
02:04:19.000 : :(Unnamed scene)
02:09:11.000 : :(Unnamed scene)
Скриншоты
 

Вложения

  • 88,4 KB Просмотры: 0
    Личеров 0
    Сидеров 0
    Файлов 1
    Объем 2,2 GB
Ваш e-mail не будет опубликован. Он потребуется для подтверждения Вашего поста.
Оформление текста Нажмите «Ввод», чтобы отправить ответ.

Привет!

Мы группа людей которые решили помочь другим в решении их проблем, а так же пользователям с поиском самых свежих и качественных инфопродуктов. За 4 с небольшим месяца мы создали этот форум на который заходят ежедневно тысячи человек и посещаемость постоянно растёт. Мы создали панель лицензирования для защиты PHP скриптов от воровства и SEO панель для мониторинга наших сайтов и выбора верной стратегии их развития. Мы надеемся что то что мы создали пригодится Вам и возможно Вы поможете нам развиваться и совершенствоваться вместе с Вами.

Статистика форума

Темы
378.561
Сообщения
417.566
Пользователи
48.919
Новый пользователь
RectonP

Приложения форума для iOS и Android


У ркн там нет власти ;)
Приватные разговоры
Помощь Пользователи
    Вы не присоединились ни к одной комнате.