За последнюю неделю опубликовано 119 новых материалов.
Инструкция новичку Путеводитель по форуму Прокси для Telegram Показать подсказки , это бомба!

Скачать Добро пожаловать в Zомбилэнд / Zombieland (2009) WEB-DLRip-AVC | D | Open Matte бесплатно через торрент

  • Поучаствуй (в качестве покупателя) в любых пяти совместных покупках (кроме завершённых и "Моментальных") и получи группу "Новичок" навсегда -> ссылка на раздел
  • Получай до 480 рублей за каждого приглашенного пользователя!
    представляем Вам очередное расширение партнерской программы, подробности описаны тут -> ссылка
  • 90% материалов доступно к скачиванию после простой регистрации!
    Если же ты хочешь скачивать материалы без требования оставлять отзывы то получи группу "Новичок", 10 способов повышения описаны тут -> ссылка
  • К сожалению количество битых ссылок растет и мы уже не можем их оперативно восстанавливать поэтому просим помощи у каждого нашего пользователя.
    С сегодняшнего дня, за каждую восстановленную ссылку мы заплатим Вам.
    Подробнее тут -> ссылка
  • Перенесем твои заслуги с другого ресурса!
    Мы понимаем как сложно прокачивать аккаунты на форумах, вроде раскачал аккаунт, а тут появляется ресурс в 100 раз круче но тоже с системой прокачки и снова качать аккаунт...
    Предлагаем вам перенести Ваши заслуги на другом подобном ресурсе к нам.
    Подробности описаны тут -> ссылка
  • Вы можете получать по 2.5% с каждой покупки и продажи на маркете! Подробности в теме Партнёрская программа
Если Вы не хотите скачивать, Вы всегда можетепосмотретьонлайн, просто нажмите кнопку ниже :

Открыть плеер

Torrent_Bot

Торрент-Бот
Бот форума
4 Окт 2016
124
95
20

Информация о фильме
Название: Добро пожаловать в Zомбилэнд
Оригинальное название: Zombieland
Год выпуска: 2009
Жанр: ужасы, фантастика, комедия, приключения
Режиссер: Рубен Фляйшер
В ролях: Джесси Айзенберг, Вуди Харрельсон, Эмма Стоун, Эбигейл Бреслин, Билл Мюррей, Эмбер Хёрд, Дерек Граф, Aquavian Abel (Extra), Сизар Агирр (Customer at the Pump), Джейкоб Дж. Экинс (Banjo Zombie), Хантер Элдридж (Best Man), Элль Александр (Zombie Meter Maid)

О фильме:
Американский континент подвергся яростной атаке зомби, которые, заразив вирусом почти всех людей, жаждут еще большей крови, и рыщут по странам и городам в поисках все новых и новых жертв. Они повсюду: в супермаркетах и маленьких магазинчиках, в парках и садах, в скверах и на улицах, на дорогах и трассах... И везде они поджидают очередную жертву, чтобы превратить ее в живого мертвеца. А оставшиеся в живых люди, скитаются по стране в поисках безопасного места и жестоко уничтожают зомби, стреляя в них из оружия. "Добро пожаловать в Зомбилэнд" - и нажимают курок короткоствола. Ведь человечество находится в опасности и на грани вымирания. И если пулей не остановить этих живых мертвецов, превратив их в мертвых, то вся раса человечества исчезнет с лица земли.



Страна: США
Студия: Pariah Films
Продолжительность: 01:27:52
Перевод: Дубляж
Субтитры: Russian (Captions, Full), English (Full, SDH, Amazon)

Файл
Формат: Matroska
Качество: WEB-DLRip-AVC | Open Matte | Amazon
Видео: 1024x576 at 23.976 fps, x264, ~1920 kbps, 0.136 bpp
Аудио: AC3, 6 ch, ~448 kbps - | Русский | - DUB, Blu-ray CEE
Формат субтитров: softsub (SRT)

***Релиз от:-=DoMiNo=-

Blu-ray vs Open Matte M/I
x264 info: frame I:1217 Avg QP:16.84 size: 56903
x264 info: frame P:33794 Avg QP:18.44 size: 20822
x264 info: frame B:91107 Avg QP:19.96 size: 5182
x264 info: consecutive B-frames: 4.1% 5.4% 7.5% 52.9% 10.8% 15.6% 1.4% 1.4% 0.4% 0.1% 0.1% 0.1% 0.2%

General
Format : Matroska
Format version : Version 4
File size : 1.45 GiB
Duration : 1 h 27 min
Overall bit rate : 2 368 kb/s
Movie name : Добро пожаловать в Zомбилэнд.(2009).WEB-DLRip-AVC.O.M.[-=DoMiNo=-]
Encoded date : UTC 2019-12-25 07:15:31
Writing application : mkvmerge v41.0.0 ('Smarra') 64-bit
Writing library : libebml v1.3.9 + libmatroska v1.5.2
Attachments : poster / poster

Video
ID : 1
Format : AVC
Format/Info : Advanced Video Codec
Format profile : High@L4.1
Format settings : CABAC / 12 Ref Frames
Format settings, CABAC : Yes
Format settings, Reference : 12 frames
Codec ID : V_MPEG4/ISO/AVC
Duration : 1 h 27 min
Bit rate : 1 920 kb/s
Width : 1 024 pixels
Height : 576 pixels
Display aspect ratio : 16:9
Frame rate mode : Constant
Frame rate : 23.976 (24000/1001) FPS
Color space : YUV
Chroma subsampling : 4:2:0
Bit depth : 8 bits
Scan type : Progressive
Bits/(Pixel*Frame) : 0.136
Stream size : 1.17 GiB (81%)
Title : RIP_BY_-=DoMiNo=-
Writing library : x264 core 157 r2958 57baac4
Encoding settings : cabac=1 / ref=12 / deblock=1:-2:-2 / analyse=0x3:0x133 / me=umh / subme=11 / psy=1 / psy_rd=1.00:0.15 / mixed_ref=1 / me_range=48 / chroma_me=1 / trellis=2 / 8x8dct=1 / cqm=0 / deadzone=21,11 / fast_pskip=0 / chroma_qp_offset=-3 / threads=6 / lookahead_threads=1 / sliced_threads=0 / nr=0 / decimate=0 / interlaced=0 / bluray_compat=0 / constrained_intra=0 / bframes=12 / b_pyramid=2 / b_adapt=2 / b_bias=0 / direct=3 / weightb=1 / open_gop=0 / weightp=2 / keyint=240 / keyint_min=24 / scenecut=40 / intra_refresh=0 / rc_lookahead=40 / rc=2pass / mbtree=0 / bitrate=1920 / ratetol=1.0 / qcomp=0.70 / qpmin=0 / qpmax=69 / qpstep=4 / cplxblur=20.0 / qblur=0.5 / vbv_maxrate=50000 / vbv_bufsize=62500 / nal_hrd=none / filler=0 / ip_ratio=1.40 / pb_ratio=1.30 / aq=3:1.00
Language : English
Default : Yes
Forced : No
Color range : Limited
Color primaries : BT.709
Transfer characteristics : BT.709
Matrix coefficients : BT.709

Audio
ID : 2
Format : AC-3
Format/Info : Audio Coding 3
Commercial name : Dolby Digital
Codec ID : A_AC3
Duration : 1 h 27 min
Bit rate mode : Constant
Bit rate : 448 kb/s
Channel(s) : 6 channels
Channel layout : L R C LFE Ls Rs
Sampling rate : 48.0 kHz
Frame rate : 31.250 FPS (1536 SPF)
Compression mode : Lossy
Stream size : 281 MiB (19%)
Title : DUB_[BluRay]
Service kind : Complete Main
Default : Yes
Forced : No

Text #1
ID : 3
Format : UTF-8
Codec ID : S_TEXT/UTF8
Codec ID/Info : UTF-8 Plain Text
Duration : 1 h 20 min
Bit rate : 3 b/s
Count of elements : 32
Stream size : 1.88 KiB (0%)
Title : Надписи и пр. (timyrovecTM)
Language : Russian
Default : Yes
Forced : Yes

Text #2
ID : 4
Format : UTF-8
Codec ID : S_TEXT/UTF8
Codec ID/Info : UTF-8 Plain Text
Duration : 1 h 22 min
Bit rate : 79 b/s
Count of elements : 866
Stream size : 48.0 KiB (0%)
Title : Полные (по дубляжу)
Language : Russian
Default : No
Forced : No

Text #3
ID : 5
Format : UTF-8
Codec ID : S_TEXT/UTF8
Codec ID/Info : UTF-8 Plain Text
Duration : 1 h 26 min
Bit rate : 48 b/s
Count of elements : 893
Stream size : 31.2 KiB (0%)
Title : Full, BluRay
Language : English
Default : No
Forced : No

Text #4
ID : 6
Format : UTF-8
Codec ID : S_TEXT/UTF8
Codec ID/Info : UTF-8 Plain Text
Duration : 1 h 26 min
Bit rate : 61 b/s
Count of elements : 1370
Stream size : 39.2 KiB (0%)
Title : Full, SDH, Amazon
Language : English
Default : No
Forced : No

Menu
00:00:00.000 : :Глава 01
00:05:30.000 : :Глава 02
00:11:00.000 : :Глава 03
00:16:30.000 : :Глава 04
00:22:00.000 : :Глава 05
00:27:30.000 : :Глава 06
00:33:00.000 : :Глава 07
00:38:30.000 : :Глава 08
00:44:00.000 : :Глава 09
00:49:30.000 : :Глава 10
00:55:00.000 : :Глава 11
01:00:30.000 : :Глава 12
01:06:00.000 : :Глава 13
01:11:30.000 : :Глава 14
01:17:00.000 : :Глава 15
01:22:30.000 : :Глава 16
Скриншоты
 

Вложения

  • 59,1 KB Просмотры: 0
    Личеров 0
    Сидеров 0
    Файлов 1
    Объем 1,5 GB
Ваш e-mail не будет опубликован. Он потребуется для подтверждения Вашего поста.
Оформление текста Нажмите «Ввод», чтобы отправить ответ.

Привет!

Мы группа людей которые решили помочь другим в решении их проблем, а так же пользователям с поиском самых свежих и качественных инфопродуктов. За 4 с небольшим месяца мы создали этот форум на который заходят ежедневно тысячи человек и посещаемость постоянно растёт. Мы создали панель лицензирования для защиты PHP скриптов от воровства и SEO панель для мониторинга наших сайтов и выбора верной стратегии их развития. Мы надеемся что то что мы создали пригодится Вам и возможно Вы поможете нам развиваться и совершенствоваться вместе с Вами.

Статистика форума

Темы
378.764
Сообщения
418.179
Пользователи
49.913
Новый пользователь
XMSI

Приложения форума для iOS и Android


У ркн там нет власти ;)
Приватные разговоры
Помощь Пользователи
    Вы не присоединились ни к одной комнате.