За последнюю неделю опубликовано 34 новых материалов.
Инструкция новичку Путеводитель по форуму Прокси для Telegram Показать подсказки , это бомба!

Скачать Добро пожаловать, или Посторонним вход воспрещен (1964) BDRip-AVC от ExKinoRay | Реставрация бесплатно через торрент

  • Поучаствуй (в качестве покупателя) в любых пяти совместных покупках (кроме завершённых и "Моментальных") и получи группу "Новичок" навсегда -> ссылка на раздел
  • Получай до 480 рублей за каждого приглашенного пользователя!
    представляем Вам очередное расширение партнерской программы, подробности описаны тут -> ссылка
  • 90% материалов доступно к скачиванию после простой регистрации!
    Если же ты хочешь скачивать материалы без требования оставлять отзывы то получи группу "Новичок", 10 способов повышения описаны тут -> ссылка
  • К сожалению количество битых ссылок растет и мы уже не можем их оперативно восстанавливать поэтому просим помощи у каждого нашего пользователя.
    С сегодняшнего дня, за каждую восстановленную ссылку мы заплатим Вам.
    Подробнее тут -> ссылка
  • Перенесем твои заслуги с другого ресурса!
    Мы понимаем как сложно прокачивать аккаунты на форумах, вроде раскачал аккаунт, а тут появляется ресурс в 100 раз круче но тоже с системой прокачки и снова качать аккаунт...
    Предлагаем вам перенести Ваши заслуги на другом подобном ресурсе к нам.
    Подробности описаны тут -> ссылка
  • Вы можете получать по 2.5% с каждой покупки и продажи на маркете! Подробности в теме Партнёрская программа
Если Вы не хотите скачивать, Вы всегда можетепосмотретьонлайн, просто нажмите кнопку ниже :

Открыть плеер

Torrent_Bot

Торрент-Бот
Бот форума
4 Окт 2016
93
160
20



Информация о фильме
Название: Добро пожаловать, или Посторонним вход воспрещен
Год выхода: 1964
Жанр: Комедия, семейный
Режиссер: Элем Климов
В ролях: Евгений Евстигнеев, Арина Алейникова, Илья Рутберг, Лидия Смирнова, Алексей Смирнов, Виктор Косых, Юрий Бондаренко (II), Лида Волкова, Борис Демб, Серёжа Кокорев, Игорь Крюков, Александр Машовец, Таня Прохорова, Людмила Смеян, Вячеслав Царёв, Татьяна Барышева, Екатерина Мазурова, Виктор Уральский, Нина Шацкая, Сергей Шаппу, Раднэр Муратов, Виктор Маркин, Дая Смирнова

О фильме:
Действие фильма происходит в пионерском лагере. Пионер Костя Иночкин самовольно переплыл реку и оказался на запретной для посещений территории, за что и был изгнан начальником лагеря Дыниным. Не желая доводить бабушку до инфаркта своим досрочным прибытием, мальчик возвращается в лагерь и «переходит на нелегальное положение», скрываясь под сценой-трибуной. Пионеры тайно помогают ему и предпринимают все меры, чтобы не состоялся родительский день, угрожающий жизни Костиной бабушки.




Выпущено: СССР, Мосфильм
Продолжительность: 01:13:10
Язык: Русский

Файл
Формат: MKV
Качество: BDRip-AVC
Видео: MPEG-4 AVC, 712x520, - 2032 Кбит/с
Аудио: AAC-HE, 2 ch, - 76 Кбит/с
Субтитры: Нет

MI
Общее
Уникальный идентификатор : 196907794268147919069671856964917082364 (0x94230FCD4D9825BE05862386B71538FC)
Полное имя : D:MOVIESDobro.pozhalovati.1964.BDRip-AVC.ExKinoRay.mkv
Формат : Matroska
Версия формата : Version 4
Размер файла : 1,08 Гбайт
Продолжительность : 1 ч. 13 м.
Общий поток : 2 110 Кбит/сек
Дата кодирования : UTC 2020-05-23 05:16:12
Программа кодирования : mkvmerge v45.0.0 ('Heaven in Pennies') 64-bit
Библиотека кодирования : libebml v1.3.10 + libmatroska v1.5.2

Видео
Идентификатор : 1
Формат : AVC
Формат/Информация : Advanced Video Codec
Профиль формата : [email protected]
Настройки формата : CABAC / 11 Ref Frames
Параметр CABAC формата : Да
Параметр RefFrames формата : 11 кадров
Идентификатор кодека : V_MPEG4/ISO/AVC
Продолжительность : 1 ч. 13 м.
Битрейт : 2 032 Кбит/сек
Ширина : 712 пикселей
Высота : 520 пикселей
Соотношение сторон : 4:3
Режим частоты кадров : Постоянный
Частота кадров : 23,976 (24000/1001) кадра/сек
Цветовое пространство : YUV
Субдискретизация насыщенности : 4:2:0
Битовая глубина : 8 бит
Тип развёртки : Прогрессивная
Бит/(Пиксели*Кадры) : 0.229
Размер потока : 1,04 Гбайт (96%)
Библиотека кодирования : x264 core 160 r3000 33f9e14
Настройки программы : cabac=1 / ref=11 / deblock=1:-2:-2 / analyse=0x3:0x133 / me=umh / subme=10 / psy=1 / psy_rd=1.05:0.14 / mixed_ref=1 / me_range=32 / chroma_me=1 / trellis=2 / 8x8dct=1 / cqm=0 / deadzone=21,11 / fast_pskip=0 / chroma_qp_offset=-3 / threads=6 / lookahead_threads=1 / sliced_threads=0 / nr=0 / decimate=0 / interlaced=0 / bluray_compat=0 / constrained_intra=0 / bframes=12 / b_pyramid=2 / b_adapt=2 / b_bias=0 / direct=3 / weightb=1 / open_gop=0 / weightp=2 / keyint=240 / keyint_min=23 / scenecut=40 / intra_refresh=0 / rc_lookahead=40 / rc=2pass / mbtree=1 / bitrate=2032 / ratetol=1.0 / qcomp=0.60 / qpmin=0 / qpmax=69 / qpstep=4 / cplxblur=20.0 / qblur=0.5 / ip_ratio=1.40 / aq=3:1.00
Default : Да
Forced : Нет
Цветовой диапазон : Limited
Основные цвета : BT.709
Характеристики трансфера : BT.709
Коэффициенты матрицы : BT.709

Аудио
Идентификатор : 2
Формат : AAC LC SBR
Формат/Информация : Advanced Audio Codec Low Complexity with Spectral Band Replication
Коммерческое название : HE-AAC
Настройки формата : Explicit
Идентификатор кодека : A_AAC-2
Продолжительность : 1 ч. 13 м.
Битрейт : 76,0 Кбит/сек
Каналы : 2 канала
Channel layout : L R
Частота : 48,0 КГц
Частота кадров : 23,438 кадра/сек (2048 SPF)
Метод сжатия : С потерями
Задержка видео : 31 мс.
Размер потока : 39,8 Мбайт (4%)
Язык : Russian
Default : Да
Forced : Нет

Меню
00:00:00.000 : ru:Chapter 00
00:03:39.636 : ru:Chapter 01
00:07:41.252 : ru:Chapter 02
00:13:04.617 : ru:Chapter 03
00:16:49.591 : ru:Chapter 04
00:23:13.517 : ru:Chapter 05
00:26:13.488 : ru:Chapter 06
00:33:42.437 : ru:Chapter 07
00:38:29.348 : ru:Chapter 08
00:42:10.778 : ru:Chapter 09
00:46:03.093 : ru:Chapter 10
00:49:15.327 : ru:Chapter 11
00:57:17.350 : ru:Chapter 12
01:01:05.662 : ru:Chapter 13
01:05:37.725 : ru:Chapter 14
Скриншоты

 

Вложения

  • 11,9 KB Просмотры: 0
    Личеров 0
    Сидеров 0
    Файлов 1
    Объем 1,1 GB

Привет!

Мы группа людей которые решили помочь другим в решении их проблем, а так же пользователям с поиском самых свежих и качественных инфопродуктов. За 4 с небольшим месяца мы создали этот форум на который заходят ежедневно тысячи человек и посещаемость постоянно растёт. Мы создали панель лицензирования для защиты PHP скриптов от воровства и SEO панель для мониторинга наших сайтов и выбора верной стратегии их развития. Мы надеемся что то что мы создали пригодится Вам и возможно Вы поможете нам развиваться и совершенствоваться вместе с Вами.

Статистика форума

Темы
406.601
Сообщения
464.985
Пользователи
84.248
Новый пользователь
kkkkkkkrrrimmmh

Приложения форума для iOS и Android


У ркн там нет власти ;)
Приватные разговоры
Помощь Пользователи
    Вы не присоединились ни к одной комнате.