За последнюю неделю опубликовано 59 новых материалов.
Инструкция новичку Путеводитель по форуму Прокси для Telegram Показать подсказки , это бомба!

Скачать Доберман / Dobermann (1997) BDRip 720p by msltel | P, A бесплатно через торрент

  • Поучаствуй (в качестве покупателя) в любых пяти совместных покупках (кроме завершённых и "Моментальных") и получи группу "Новичок" навсегда -> ссылка на раздел
  • Получай до 480 рублей за каждого приглашенного пользователя!
    представляем Вам очередное расширение партнерской программы, подробности описаны тут -> ссылка
  • 90% материалов доступно к скачиванию после простой регистрации!
    Если же ты хочешь скачивать материалы без требования оставлять отзывы то получи группу "Новичок", 10 способов повышения описаны тут -> ссылка
  • К сожалению количество битых ссылок растет и мы уже не можем их оперативно восстанавливать поэтому просим помощи у каждого нашего пользователя.
    С сегодняшнего дня, за каждую восстановленную ссылку мы заплатим Вам.
    Подробнее тут -> ссылка
  • Перенесем твои заслуги с другого ресурса!
    Мы понимаем как сложно прокачивать аккаунты на форумах, вроде раскачал аккаунт, а тут появляется ресурс в 100 раз круче но тоже с системой прокачки и снова качать аккаунт...
    Предлагаем вам перенести Ваши заслуги на другом подобном ресурсе к нам.
    Подробности описаны тут -> ссылка
  • Вы можете получать по 2.5% с каждой покупки и продажи на маркете! Подробности в теме Партнёрская программа
Если Вы не хотите скачивать, Вы всегда можетепосмотретьонлайн, просто нажмите кнопку ниже :

Открыть плеер

Torrent_Bot

Торрент-Бот
Бот форума
4 Окт 2016
90
168
20
Название: Доберман
Оригинальное название: Dobermann
Год выпуска: 1997
Жанр:Боевик, триллер, криминал
Выпущено: Франция, Canal+ [fr], France 3 Cinéma, La Chauve Souris, Noé Productions, PolyGram Audiovisuel, Mac Guff Ligne
Режиссер: Ян Кунен
В ролях: Венсан Кассель, Чеки Карио, Моника Беллуччи, Антуан Баслер, Доминик Беттенфельд, Паскаль Демолон, Марк Дюре, Ромен Дюри, Франсуа Леванталь, Иван Мерат-Барбофф, Стефан Мецгер, Чик Ортега, Патрик Рокка, Флоранс Томассен, Ролан Амстюц, Жан Лекот, Арно Арбессье, Хосе Камачо, Жан-Франсуа Каттон

О фильме: Герою фильма уже в день крестин один из друзей отца дарит Магнум-357. Мальчик вырос и стал супернаглым и дерзким грабителем по кличке Доберман. 357-й Магнум заменили самые современные виды огнестрельного оружия, включая даже небольшие ракеты, которыми можно стрелять, навинчивая их на ствол пистолета. Вместе с ним всегда его глухая подруга, спокойно красящая ногти во время ограбления инкассаторов. Все члены банды - еще те типажи! Ловит же его Чеки Карио, жестокий полицейский, рядом с которым Грязный Гарри просто бойскаут. Он одержимо хочет поймать или убить Добермана и для достижения своей цели готов пойти на всё и даже преступить закон.

Качество: BDRip 720p
Размер: 4.72 ГБ
Продолжительность: 01:43:06

Видео: MPEG-4 AVC, 4181 Kбит/с, 1280x544
Аудио 1: русский, 48 kHz, AC3, 6 ch, 448 kbps avg, [Профессиональный многоголосый, Домашнее Видео]
Аудио 2: русский, 48 kHz, AC3, 6 ch, 448 kbps avg, [Авторский, Леонид Володарский]
Аудио 3: русский, 48 kHz, AC3, 6 ch, 448 kbps avg, [Авторский, Юрий Сербин]
Аудио 4: русский, 48 kHz, AC3, 6 ch, 448 kbps avg, [Авторский, Михаил Яроцкий, ненормативная лексика]
Аудио 5: французский, 48 kHz, AC3, 6 ch, 448 kbps avg, [Оригинал]
Субтитры 1: русские
Субтитры 2: французские
Субтитры 3: английские

Исходник: ЗЕВС911 (Кинозал)

Сравнение с исходником



MediaInfo + Лог х264
Общее
Уникальный идентификатор : 211424267567648758160283796187767155299 (0x9F0ED53195EEEC1A9154BDC0FCB8AA63)
Полное имя : D:VideoDoberman.1997.x264.BDRip.720p.mkv
Формат : Matroska
Версия формата : Version 4 / Version 2
Размер файла : 4,72 Гбайт
Продолжительность : 1 ч. 43 м.
Общий поток : 6551 Кбит/сек
Дата кодирования : UTC 2014-05-21 02:13:07
Программа кодирования : mkvmerge v6.9.1 ('Blue Panther') 64bit built on Apr 18 2014 18:23:38
Библиотека кодирования : libebml v1.3.0 + libmatroska v1.4.1

Видео
Идентификатор : 1
Формат : AVC
Формат/Информация : Advanced Video Codec
Профиль формата : [email protected]
Параметр CABAC формата : Да
Параметр ReFrames формата : 9 кадров
Идентификатор кодека : V_MPEG4/ISO/AVC
Продолжительность : 1 ч. 43 м.
Битрейт : 4181 Кбит/сек
Ширина : 1280 пикселей
Высота : 544 пикселя
Соотношение сторон : 2,35:1
Режим частоты кадров : Постоянный
Частота кадров : 24,000 кадра/сек
Цветовое пространство : YUV
Субдискретизация насыщенности : 4:2:0
Битовая глубина : 8 бит
Тип развёртки : Прогрессивная
Бит/(Пиксели*Кадры) : 0.250
Размер потока : 3,01 Гбайт (64%)
Заголовок : BDRip -- STarankov
Библиотека кодирования : x264 core 138 r2358 9e941d1
Настройки программы : cabac=1 / ref=9 / deblock=1:-1:-1 / analyse=0x3:0x113 / me=umh / subme=10 / psy=1 / psy_rd=1.00:0.15 / mixed_ref=1 / me_range=32 / chroma_me=1 / trellis=2 / 8x8dct=1 / cqm=0 / deadzone=21,11 / fast_pskip=0 / chroma_qp_offset=-3 / threads=6 / lookahead_threads=1 / sliced_threads=0 / nr=0 / decimate=1 / interlaced=0 / bluray_compat=0 / constrained_intra=0 / bframes=8 / b_pyramid=2 / b_adapt=2 / b_bias=0 / direct=1 / weightb=1 / open_gop=0 / weightp=2 / keyint=230 / keyint_min=23 / scenecut=40 / intra_refresh=0 / rc_lookahead=40 / rc=crf / mbtree=0 / crf=19.0 / qcomp=0.60 / qpmin=0 / qpmax=69 / qpstep=4 / vbv_maxrate=40000 / vbv_bufsize=50000 / crf_max=0.0 / nal_hrd=none / ip_ratio=1.40 / pb_ratio=1.30 / aq=1:1.00
Язык : French
Default : Да
Forced : Нет

Аудио #1
Идентификатор : 2
Формат : AC-3
Формат/Информация : Audio Coding 3
Расширение режима : CM (complete main)
Параметр Endianness формата : Big
Идентификатор кодека : A_AC3
Продолжительность : 1 ч. 43 м.
Вид битрейта : Постоянный
Битрейт : 448 Кбит/сек
Каналы : 6 каналов
Расположение каналов : Front: L C R, Side: L R, LFE
Частота : 48,0 КГц
Битовая глубина : 16 бит
Метод сжатия : С потерями
Размер потока : 330 Мбайт (7%)
Заголовок : MVO
Язык : Russian
Default : Да
Forced : Нет

Аудио #2
Идентификатор : 3
Формат : AC-3
Формат/Информация : Audio Coding 3
Расширение режима : CM (complete main)
Параметр Endianness формата : Big
Идентификатор кодека : A_AC3
Продолжительность : 1 ч. 43 м.
Вид битрейта : Постоянный
Битрейт : 448 Кбит/сек
Каналы : 6 каналов
Расположение каналов : Front: L C R, Side: L R, LFE
Частота : 48,0 КГц
Битовая глубина : 16 бит
Метод сжатия : С потерями
Размер потока : 330 Мбайт (7%)
Заголовок : AVO (Леонид Володарский)
Язык : Russian
Default : Нет
Forced : Нет

Аудио #3
Идентификатор : 4
Формат : AC-3
Формат/Информация : Audio Coding 3
Расширение режима : CM (complete main)
Параметр Endianness формата : Big
Идентификатор кодека : A_AC3
Продолжительность : 1 ч. 43 м.
Вид битрейта : Постоянный
Битрейт : 448 Кбит/сек
Каналы : 6 каналов
Расположение каналов : Front: L C R, Side: L R, LFE
Частота : 48,0 КГц
Битовая глубина : 16 бит
Метод сжатия : С потерями
Размер потока : 330 Мбайт (7%)
Заголовок : AVO (Юрий Сербин)
Язык : Russian
Default : Нет
Forced : Нет

Аудио #4
Идентификатор : 5
Формат : AC-3
Формат/Информация : Audio Coding 3
Расширение режима : CM (complete main)
Параметр Endianness формата : Big
Идентификатор кодека : A_AC3
Продолжительность : 1 ч. 43 м.
Вид битрейта : Постоянный
Битрейт : 448 Кбит/сек
Каналы : 6 каналов
Расположение каналов : Front: L C R, Side: L R, LFE
Частота : 48,0 КГц
Битовая глубина : 16 бит
Метод сжатия : С потерями
Размер потока : 330 Мбайт (7%)
Заголовок : AVO (Михаил Яроцкий, ненормативная лексика)
Язык : Russian
Default : Нет
Forced : Нет

Аудио #5
Идентификатор : 6
Формат : AC-3
Формат/Информация : Audio Coding 3
Расширение режима : CM (complete main)
Параметр Endianness формата : Big
Идентификатор кодека : A_AC3
Продолжительность : 1 ч. 43 м.
Вид битрейта : Постоянный
Битрейт : 448 Кбит/сек
Каналы : 6 каналов
Расположение каналов : Front: L C R, Side: L R, LFE
Частота : 48,0 КГц
Битовая глубина : 16 бит
Метод сжатия : С потерями
Размер потока : 330 Мбайт (7%)
Заголовок : Original
Язык : French
Default : Нет
Forced : Нет

Текст #1
Идентификатор : 7
Формат : UTF-8
Идентификатор кодека : S_TEXT/UTF8
Идентификатор кодека/Информация : UTF-8 Plain Text
Заголовок : русский
Язык : Russian
Default : Нет
Forced : Нет

Текст #2
Идентификатор : 8
Формат : UTF-8
Идентификатор кодека : S_TEXT/UTF8
Идентификатор кодека/Информация : UTF-8 Plain Text
Заголовок : французский
Язык : French
Default : Нет
Forced : Нет

Текст #3
Идентификатор : 9
Формат : UTF-8
Идентификатор кодека : S_TEXT/UTF8
Идентификатор кодека/Информация : UTF-8 Plain Text
Заголовок : английский
Default : Нет
Forced : Нет

---[Information] [20.05.2014 19:57:40] raw [info]: 1280x544p 1:1 @ 24/1 fps (cfr)
---[Information] [20.05.2014 19:57:40] x264 [info]: using SAR=1/1
---[Information] [20.05.2014 19:57:40] x264 [info]: using cpu capabilities: MMX2 SSE2Fast SSSE3 SSE4.2
---[Information] [20.05.2014 19:57:40] x264 [info]: profile High, level 4.1
---[Information] [21.05.2014 1:31:44] x264 [info]: frame I:1185 Avg QP:17.74 size: 81565
---[Information] [21.05.2014 1:31:44] x264 [info]: frame P:35969 Avg QP:19.78 size: 40474
---[Information] [21.05.2014 1:31:44] x264 [info]: frame B:111330 Avg QP:22.23 size: 15981
---[Information] [21.05.2014 1:31:44] x264 [info]: consecutive B-frames: 2.8% 3.8% 10.7% 30.9% 18.7% 26.9% 3.4% 1.5% 1.3%
---[Information] [21.05.2014 1:31:44] x264 [info]: mb I I16..4: 10.9% 72.3% 16.9%
---[Information] [21.05.2014 1:31:44] x264 [info]: mb P I16..4: 2.0% 26.8% 2.7% P16..4: 26.3% 18.9% 9.2% 0.0% 0.0% skip:14.1%
---[Information] [21.05.2014 1:31:44] x264 [info]: mb B I16..4: 0.4% 3.7% 0.3% B16..8: 35.2% 12.1% 3.3% direct: 8.8% skip:36.2% L0:41.7% L1:41.4% BI:16.9%
---[Information] [21.05.2014 1:31:44] x264 [info]: 8x8 transform intra:84.0% inter:64.8%
---[Information] [21.05.2014 1:31:44] x264 [info]: coded y,uvDC,uvAC intra: 81.8% 85.6% 73.2% inter: 31.4% 31.3% 9.1%
---[Information] [21.05.2014 1:31:44] x264 [info]: i16 v,h,dc,p: 62% 12% 10% 16%
---[Information] [21.05.2014 1:31:44] x264 [info]: i8 v,h,dc,ddl,ddr,vr,hd,vl,hu: 11% 9% 16% 8% 12% 11% 11% 10% 12%
---[Information] [21.05.2014 1:31:44] x264 [info]: i4 v,h,dc,ddl,ddr,vr,hd,vl,hu: 12% 9% 7% 8% 14% 13% 13% 11% 12%
---[Information] [21.05.2014 1:31:44] x264 [info]: i8c dc,h,v,p: 51% 17% 16% 17%
---[Information] [21.05.2014 1:31:44] x264 [info]: Weighted P-Frames: Y:9.2% UV:7.0%
---[Information] [21.05.2014 1:31:44] x264 [info]: ref P L0: 45.8% 12.8% 18.5% 6.0% 5.3% 3.5% 3.4% 1.9% 2.1% 0.5% 0.1%
---[Information] [21.05.2014 1:31:44] x264 [info]: ref B L0: 75.6% 10.8% 5.1% 3.1% 2.1% 1.8% 1.0% 0.4%
---[Information] [21.05.2014 1:31:44] x264 [info]: ref B L1: 94.6% 5.4%
---[Information] [21.05.2014 1:31:44] x264 [info]: kb/s:4308.06
---[Information] [21.05.2014 1:31:44] encoded 148484 frames, 7.41 fps, 4308.06 kb/s
--[Information] [21.05.2014 1:31:46] Final statistics
---[Information] [21.05.2014 1:31:46] Constant Quality Mode: Quality 19 computed...
---[Information] [21.05.2014 1:31:46] Video Bitrate Obtained (approximate): 4309 kbit/s
--[Information] [21.05.2014 1:31:46] MediaInfo
---[Information] File: D:RipDoberman.1997.x264.BDRipDoberman.1997.x264.BDRip.720p.mkv
Скриншоты
 

Вложения

  • 24,6 KB Просмотры: 1
    Личеров 0
    Сидеров 0
    Файлов 1
    Объем 4,7 GB

Привет!

Мы группа людей которые решили помочь другим в решении их проблем, а так же пользователям с поиском самых свежих и качественных инфопродуктов. За 4 с небольшим месяца мы создали этот форум на который заходят ежедневно тысячи человек и посещаемость постоянно растёт. Мы создали панель лицензирования для защиты PHP скриптов от воровства и SEO панель для мониторинга наших сайтов и выбора верной стратегии их развития. Мы надеемся что то что мы создали пригодится Вам и возможно Вы поможете нам развиваться и совершенствоваться вместе с Вами.

Статистика форума

Темы
410.941
Сообщения
469.355
Пользователи
88.283
Новый пользователь
dhsjsnfc

Приложения форума для iOS и Android


У ркн там нет власти ;)
Приватные разговоры
Помощь Пользователи
    Вы не присоединились ни к одной комнате.