За последнюю неделю опубликовано 57 новых материалов.
Инструкция новичку Путеводитель по форуму Прокси для Telegram Показать подсказки , это бомба!

Скачать Дни вина и роз / Days of Wine and Roses (1962) BDRip 720p от msltel | P бесплатно через торрент

  • Поучаствуй (в качестве покупателя) в любых пяти совместных покупках (кроме завершённых и "Моментальных") и получи группу "Новичок" навсегда -> ссылка на раздел
  • Получай до 480 рублей за каждого приглашенного пользователя!
    представляем Вам очередное расширение партнерской программы, подробности описаны тут -> ссылка
  • 90% материалов доступно к скачиванию после простой регистрации!
    Если же ты хочешь скачивать материалы без требования оставлять отзывы то получи группу "Новичок", 10 способов повышения описаны тут -> ссылка
  • К сожалению количество битых ссылок растет и мы уже не можем их оперативно восстанавливать поэтому просим помощи у каждого нашего пользователя.
    С сегодняшнего дня, за каждую восстановленную ссылку мы заплатим Вам.
    Подробнее тут -> ссылка
  • Перенесем твои заслуги с другого ресурса!
    Мы понимаем как сложно прокачивать аккаунты на форумах, вроде раскачал аккаунт, а тут появляется ресурс в 100 раз круче но тоже с системой прокачки и снова качать аккаунт...
    Предлагаем вам перенести Ваши заслуги на другом подобном ресурсе к нам.
    Подробности описаны тут -> ссылка
  • Вы можете получать по 2.5% с каждой покупки и продажи на маркете! Подробности в теме Партнёрская программа
Если Вы не хотите скачивать, Вы всегда можетепосмотретьонлайн, просто нажмите кнопку ниже :

Открыть плеер

Torrent_Bot

Торрент-Бот
Бот форума
4 Окт 2016
92
163
20



Название: Дни вина и роз
Оригинальное название: Days of Wine and Roses
Год выпуска: 1962
Страна: США
Жанр: драма
Продолжительность: 01:57:17
Перевод: профессиональный многоголосый
Режиссер: Блэйк Эдвардс
В ролях: Джек Леммон, Ли Ремик, Чарльз Бикфорд, Джек Клагмен, Алан Хьюит, Том Палмер, Дебби Мегоуэн, Максин Стюарт, Джек Альбертсон, Кен Линч, Карл Арнольд, Роджер Баррет, Русс Бендер, Мэри Бенуа, Мэл Бланк, Линн Борден, Дженнифер Эдвардс, Джон Бард Манулис

О фильме: Джо Клэй, молодой преуспевающий клерк, знакомится с очаровательной Кирстен Аронсон. Вскоре они женятся, у них рождается дочь. Не дурак выпить, Джо постепенно приучает к этому и жену. Постепенно выпивка вытесняет всё из их жизни. Джо теряет работу и допивается до белой горячки. Оказавшегося на краю пропасти Джо спасают собрания анонимных алкоголиков. Но Кирстен не хочет признать, что больна. Она вынуждает Джо опять начать пить... Фильм по одноимённой телепьесе Дж. П. Миллера.



Качество: BDRip 720p
Формат: MKV
Видео: MPEG-4 AVC, 6232 Кбит/с, 1280x690, 23.976 Kадр/с
Аудио 1: русский, AC3, 192 kbps, 2 ch, 48 kHz [закадровый многоголосый]
Аудио 2: английский, AC3, 192 kbps, 2 ch, 48 kHz [оригинал]
Субтитры: английские
Главы/чаптеры

MediaInfo
Общее
Уникальный идентификатор : 223443640392590972072707687576649808646 (0xA819AE06D0CDD6638270EFB4A3CB3B06)
Полное имя : D:VideoДни вина и роз.1962.BDRip 720p msltel.mkv
Формат : Matroska
Версия формата : Version 4
Размер файла : 5,42 Гбайт
Продолжительность : 1 ч. 57 м.
Общий поток : 6 618 Кбит/сек
Название фильма : Rip msltel
Дата кодирования : UTC 2020-08-10 04:04:56
Программа кодирования : mkvmerge v8.2.0 ('World of Adventure') 64bit
Библиотека кодирования : libebml v1.3.1 + libmatroska v1.4.2

Видео
Идентификатор : 1
Формат : AVC
Формат/Информация : Advanced Video Codec
Профиль формата : [email protected]
Настройки формата : CABAC / 9 Ref Frames
Параметр CABAC формата : Да
Параметр RefFrames формата : 9 кадров
Идентификатор кодека : V_MPEG4/ISO/AVC
Продолжительность : 1 ч. 57 м.
Битрейт : 6 232 Кбит/сек
Ширина : 1 280 пикселей
Высота : 690 пикселей
Соотношение сторон : 1,85:1
Режим частоты кадров : Постоянный
Частота кадров : 23,976 (24000/1001) кадра/сек
Цветовое пространство : YUV
Субдискретизация насыщенности : 4:2:0
Битовая глубина : 8 бит
Тип развёртки : Прогрессивная
Бит/(Пиксели*Кадры) : 0.294
Размер потока : 5,11 Гбайт (94%)
Библиотека кодирования : x264 core 159 r2991 1771b55
Настройки программы : cabac=1 / ref=9 / deblock=1:-2:-2 / analyse=0x3:0x113 / me=umh / subme=11 / psy=1 / psy_rd=1.00:0.15 / mixed_ref=1 / me_range=32 / chroma_me=1 / trellis=2 / 8x8dct=1 / cqm=0 / deadzone=21,11 / fast_pskip=0 / chroma_qp_offset=-3 / threads=6 / lookahead_threads=1 / sliced_threads=0 / nr=0 / decimate=1 / interlaced=0 / bluray_compat=0 / constrained_intra=0 / bframes=6 / b_pyramid=2 / b_adapt=2 / b_bias=0 / direct=1 / weightb=1 / open_gop=0 / weightp=2 / keyint=230 / keyint_min=23 / scenecut=40 / intra_refresh=0 / rc_lookahead=40 / rc=crf / mbtree=1 / crf=20.1 / qcomp=0.60 / qpmin=0 / qpmax=69 / qpstep=4 / vbv_maxrate=50000 / vbv_bufsize=62500 / crf_max=0.0 / nal_hrd=none / filler=0 / ip_ratio=1.40 / aq=1:1.00
Язык : English
Default : Да
Forced : Нет

Аудио #1
Идентификатор : 2
Формат : AC-3
Формат/Информация : Audio Coding 3
Коммерческое название : Dolby Digital
Идентификатор кодека : A_AC3
Продолжительность : 1 ч. 57 м.
Вид битрейта : Постоянный
Битрейт : 192 Кбит/сек
Каналы : 2 канала
Channel layout : L R
Частота : 48,0 КГц
Частота кадров : 31,250 кадров/сек (1536 SPF)
Метод сжатия : С потерями
Размер потока : 161 Мбайт (3%)
Заголовок : MVO
Язык : Russian
Service kind : Complete Main
Default : Да
Forced : Нет

Аудио #2
Идентификатор : 3
Формат : AC-3
Формат/Информация : Audio Coding 3
Коммерческое название : Dolby Digital
Идентификатор кодека : A_AC3
Продолжительность : 1 ч. 57 м.
Вид битрейта : Постоянный
Битрейт : 192 Кбит/сек
Каналы : 2 канала
Channel layout : L R
Частота : 48,0 КГц
Частота кадров : 31,250 кадров/сек (1536 SPF)
Метод сжатия : С потерями
Размер потока : 161 Мбайт (3%)
Заголовок : оригинал
Язык : English
Service kind : Complete Main
Default : Нет
Forced : Нет

Текст
Идентификатор : 4
Формат : UTF-8
Идентификатор кодека : S_TEXT/UTF8
Идентификатор кодека/Информация : UTF-8 Plain Text
Продолжительность : 1 ч. 56 м.
Битрейт : 63 бит/сек
Count of elements : 1773
Размер потока : 53,7 Кбайт (0%)
Заголовок : английские
Язык : English
Default : Нет
Forced : Нет

Меню
00:00:00.000 : :Chapter 1
00:02:06.126 : :Chapter 2
00:06:19.838 : :Chapter 3
00:09:18.349 : :Chapter 4
00:14:54.936 : :Chapter 5
00:18:44.540 : :Chapter 6
00:25:34.616 : :Chapter 7
00:27:47.499 : :Chapter 8
00:32:52.470 : :Chapter 9
00:39:54.767 : :Chapter 10
00:43:12.673 : :Chapter 11
00:50:47.169 : :Chapter 12
00:55:19.274 : :Chapter 13
01:00:03.600 : :Chapter 14
01:02:55.313 : :Chapter 15
01:04:58.394 : :Chapter 16
01:10:30.059 : :Chapter 17
01:16:51.774 : :Chapter 18
01:19:47.032 : :Chapter 19
01:25:15.527 : :Chapter 20
01:30:05.483 : :Chapter 21
01:36:27.907 : :Chapter 22
01:40:06.000 : :Chapter 23
01:42:45.201 : :Chapter 24
01:44:37.313 : :Chapter 25
01:48:28.836 : :Chapter 26
01:52:24.655 : :Chapter 27
01:57:10.523 : :Chapter 28
 

Вложения

  • 28 KB Просмотры: 0
    Личеров 0
    Сидеров 0
    Файлов 1
    Объем 5,4 GB

Привет!

Мы группа людей которые решили помочь другим в решении их проблем, а так же пользователям с поиском самых свежих и качественных инфопродуктов. За 4 с небольшим месяца мы создали этот форум на который заходят ежедневно тысячи человек и посещаемость постоянно растёт. Мы создали панель лицензирования для защиты PHP скриптов от воровства и SEO панель для мониторинга наших сайтов и выбора верной стратегии их развития. Мы надеемся что то что мы создали пригодится Вам и возможно Вы поможете нам развиваться и совершенствоваться вместе с Вами.

Статистика форума

Темы
406.698
Сообщения
465.162
Пользователи
84.789
Новый пользователь
Setis

Приложения форума для iOS и Android


У ркн там нет власти ;)
Приватные разговоры
Помощь Пользователи
    Вы не присоединились ни к одной комнате.