За последнюю неделю опубликовано 32 новых материалов.
Инструкция новичку Путеводитель по форуму Прокси для Telegram Показать подсказки , это бомба!

Скачать Дни грома / Days of Thunder (1990) UHD BDRemux 2160p от селезень | 4K | HDR | Dolby Vision TV | P бесплатно через торрент

  • Поучаствуй (в качестве покупателя) в любых пяти совместных покупках (кроме завершённых и "Моментальных") и получи группу "Новичок" навсегда -> ссылка на раздел
  • Получай до 480 рублей за каждого приглашенного пользователя!
    представляем Вам очередное расширение партнерской программы, подробности описаны тут -> ссылка
  • 90% материалов доступно к скачиванию после простой регистрации!
    Если же ты хочешь скачивать материалы без требования оставлять отзывы то получи группу "Новичок", 10 способов повышения описаны тут -> ссылка
  • К сожалению количество битых ссылок растет и мы уже не можем их оперативно восстанавливать поэтому просим помощи у каждого нашего пользователя.
    С сегодняшнего дня, за каждую восстановленную ссылку мы заплатим Вам.
    Подробнее тут -> ссылка
  • Перенесем твои заслуги с другого ресурса!
    Мы понимаем как сложно прокачивать аккаунты на форумах, вроде раскачал аккаунт, а тут появляется ресурс в 100 раз круче но тоже с системой прокачки и снова качать аккаунт...
    Предлагаем вам перенести Ваши заслуги на другом подобном ресурсе к нам.
    Подробности описаны тут -> ссылка
  • Вы можете получать по 2.5% с каждой покупки и продажи на маркете! Подробности в теме Партнёрская программа
Если Вы не хотите скачивать, Вы всегда можетепосмотретьонлайн, просто нажмите кнопку ниже :

Открыть плеер

Torrent_Bot

Торрент-Бот
Бот форума
4 Окт 2016
93
160
20


Информация о фильме
Название: Дни грома
Оригинальное название: Days of Thunder
Год выхода: 1990
Жанр: Мелодрама, драма, спорт
Режиссер: Тони Скотт
В ролях: Том Круз, Николь Кидман, Роберт Дювалл, Рэнди Куэйд, Кэри Элвес, Майкл Рукер, Фред Долтон Томпсон, Джон С. Райлли, Дж. К. Куин, Дон Симпсон, Кэролин Уильямс, Донна В. Скотт, Крис Эллис, Питер Эппел, Стивен Майкл Айерс, Майк Слэттери, Барбара Гэррик, Джералд Р. Молен, Таня Кольридж, Александра Белахойтис, Стив Бойд, Дэниэл Д. Гринвуд, Джим Гримшоу



О фильме: Гонщик Коул Трикл молод и мало кому известен, но он не боится скорости и на полном ходу может вписаться в самый крутой поворот. На гонках главным соперником Коула становится более опытный спортсмен Роуди Бернс. Но ни Коул, ни Роуди не доходят до финишной черты: происходит сильное столкновение, в результате которого соперники оказываются в одной больничной палате. Коул временно теряет зрение, и потому не может оценить красоту своего окулиста, Клер Левики. Зрение быстро возвращается, но Клер предупреждает Коула, что ему нельзя возвращаться в опасный спорт до полного выздоровления. Раздосадованные отстранением от участия в соревновании, Роуди и Коул устраивают зрелищную гонку на инвалидных колясках по больничным коридорам. Эти двое найдут в себе силы вернуться на настоящую трассу, и один из них возьмет главный приз.

Страна: США
Студия: Don Simpson-Jerry Bruckheimer Films, Paramount Pictures
Продолжительность: 01:47:17
Перевод: Профессиональный многоголосый | Премьер Мультимедиа

Качество: BDRemux 2160p
Видео: 3840x2160 at 23.976 fps, MPEG-H HEVC HDR Video, 56500 kbps avg
Аудио: 48 kHz, AC3, 5.1, 640 Kbps | Премьер Мультимедиа | RUS |
Субтитры: Нет



MI
General
Complete name : D:Video222Days.of.Thunder.1990.BDREMUX.2160p.HDR.DV_TV.seleZen.mp4
Format : MPEG-4
Format profile : Base Media / Version 2
Codec ID : mp42 (mp42/dby1/isom)
File size : 47.6 GiB
Duration : 1 h 47 min
Overall bit rate : 63.5 Mb/s
Encoded date : UTC 2020-05-22 16:46:53
Tagged date : UTC 2020-05-22 16:46:53

Video #1
ID : 1
Format : HEVC
Format/Info : High Efficiency Video Coding
Format profile : Main [email protected]@High
HDR format : SMPTE ST 2086, HDR10 compatible
Codec ID : hev1
Codec ID/Info : High Efficiency Video Coding
Duration : 1 h 47 min
Bit rate : 56.5 Mb/s
Width : 3 840 pixels
Height : 2 160 pixels
Display aspect ratio : 16:9
Frame rate mode : Constant
Frame rate : 23.976 (24000/1001) FPS
Color space : YUV
Chroma subsampling : 4:2:0 (Type 2)
Bit depth : 10 bits
Bits/(Pixel*Frame) : 0.284
Stream size : 42.4 GiB (89%)
Default : No
Encoded date : UTC 2020-05-22 16:46:53
Tagged date : UTC 2020-05-22 16:46:53
Color range : Limited
Color primaries : BT.2020
Transfer characteristics : PQ
Matrix coefficients : BT.2020 non-constant
Mastering display color pri : Display P3
Mastering display luminance : min: 0.0001 cd/m2, max: 1000 cd/m2
Codec configuration box : hvcC

Video #2
ID : 2
Format : HEVC
Format/Info : High Efficiency Video Coding
Format profile : Main [email protected]@High
HDR format : Dolby Vision, Version 1.0, dvhe.07.06, EL+RPU, Blu-ray compatible / SMPTE ST 2086, HDR10 compatible
Codec ID : dvhe
Codec ID/Info : High Efficiency Video Coding with Dolby Vision
Duration : 1 h 47 min
Bit rate : 6 361 kb/s
Width : 1 920 pixels
Height : 1 080 pixels
Display aspect ratio : 16:9
Frame rate mode : Constant
Frame rate : 23.976 (24000/1001) FPS
Color space : YUV
Chroma subsampling : 4:2:0 (Type 2)
Bit depth : 10 bits
Bits/(Pixel*Frame) : 0.128
Stream size : 4.77 GiB (10%)
Default : No
Encoded date : UTC 2020-05-22 16:46:53
Tagged date : UTC 2020-05-22 16:46:53
Color range : Limited
Color primaries : BT.2020
Transfer characteristics : PQ
Matrix coefficients : BT.2020 non-constant
Mastering display color pri : Display P3
Mastering display luminance : min: 0.0001 cd/m2, max: 1000 cd/m2
Codec configuration box : hvcC+dvcC

Audio
ID : 3
Format : AC-3
Format/Info : Audio Coding 3
Commercial name : Dolby Digital
Codec ID : ac-3
Duration : 1 h 47 min
Bit rate mode : Constant
Bit rate : 640 kb/s
Channel(s) : 6 channels
Channel layout : L R C LFE Ls Rs
Sampling rate : 48.0 kHz
Frame rate : 31.250 FPS (1536 SPF)
Compression mode : Lossy
Stream size : 491 MiB (1%)
Language : Russian
Service kind : Complete Main
Default : No
Encoded date : UTC 2020-05-22 16:46:53
Tagged date : UTC 2020-05-22 16:46:53

Релиз от:

 

Вложения

  • 60,5 KB Просмотры: 0
    Личеров 0
    Сидеров 0
    Файлов 1
    Объем 47,6 GB

Привет!

Мы группа людей которые решили помочь другим в решении их проблем, а так же пользователям с поиском самых свежих и качественных инфопродуктов. За 4 с небольшим месяца мы создали этот форум на который заходят ежедневно тысячи человек и посещаемость постоянно растёт. Мы создали панель лицензирования для защиты PHP скриптов от воровства и SEO панель для мониторинга наших сайтов и выбора верной стратегии их развития. Мы надеемся что то что мы создали пригодится Вам и возможно Вы поможете нам развиваться и совершенствоваться вместе с Вами.

Статистика форума

Темы
406.616
Сообщения
465.078
Пользователи
84.484
Новый пользователь
Beatlman

Приложения форума для iOS и Android


У ркн там нет власти ;)
Приватные разговоры
Помощь Пользователи
    Вы не присоединились ни к одной комнате.