За последнюю неделю опубликовано 29 новых материалов.
Инструкция новичку Путеводитель по форуму Прокси для Telegram Показать подсказки , это бомба!

Скачать Длинный уикэнд / The Long Weekend (2005) DVDRip-AVC | D бесплатно через торрент

  • Поучаствуй (в качестве покупателя) в любых пяти совместных покупках (кроме завершённых и "Моментальных") и получи группу "Новичок" навсегда -> ссылка на раздел
  • Получай до 480 рублей за каждого приглашенного пользователя!
    представляем Вам очередное расширение партнерской программы, подробности описаны тут -> ссылка
  • 90% материалов доступно к скачиванию после простой регистрации!
    Если же ты хочешь скачивать материалы без требования оставлять отзывы то получи группу "Новичок", 10 способов повышения описаны тут -> ссылка
  • К сожалению количество битых ссылок растет и мы уже не можем их оперативно восстанавливать поэтому просим помощи у каждого нашего пользователя.
    С сегодняшнего дня, за каждую восстановленную ссылку мы заплатим Вам.
    Подробнее тут -> ссылка
  • Перенесем твои заслуги с другого ресурса!
    Мы понимаем как сложно прокачивать аккаунты на форумах, вроде раскачал аккаунт, а тут появляется ресурс в 100 раз круче но тоже с системой прокачки и снова качать аккаунт...
    Предлагаем вам перенести Ваши заслуги на другом подобном ресурсе к нам.
    Подробности описаны тут -> ссылка
  • Вы можете получать по 2.5% с каждой покупки и продажи на маркете! Подробности в теме Партнёрская программа
Если Вы не хотите скачивать, Вы всегда можетепосмотретьонлайн, просто нажмите кнопку ниже :

Открыть плеер

Torrent_Bot

Торрент-Бот
Бот форума
4 Окт 2016
93
155
20
Информация о фильме
Название: Длинный уикэнд
Оригинальное название: The Long Weekend
Год выхода: 2005
Жанр: комедия
Режиссер: Пэт Холден
В ролях: Крис Клейн, Брендан Фер, Чандра Уэст, Крэйг Фэйрбрасс, Пол Кэмпбелл, Коби Смолдерс

О фильме:
С тех пор, как Эду в руки попала видеокамера, он с ней не расставался. Сначала его называли чокнутым, но потом Эд нашел свое место в рекламной индустрии. Теперь он придумывает гениальную рекламу и приносит своему боссу миллионы. И все идет хорошо, пока Эд не расстается со своей девушкой. А нет подружки — нет секса. Нет секса — нет вдохновения. Нет вдохновения — нет работы!
На преодоление творческого кризиса у парня всего один уик-энд. За эти выходные Эд должен найти девушку и придумать нечто выдающееся. На помощь парню приходит его брат Купер, у которого никогда не было проблем ни с сексом, ни с вдохновением.



MPAA: R - Детям до 17 летобязательно присутствие родителей

Страна: США
Продолжительность: 01:26:35
Перевод: Профессиональный (полное дублирование)
Субтитры: Русские

Файл
Кодек: x264
Качество: DVDRip-AVC [DVD9 | Лицензия]
Видео: High@L4.1, 720x388, 25 fps, 1519 kbps
Аудио №1: AC3, 48 kHz, 448 kbps, 6 ch (RUS)
Аудио №2: AC3, 48 kHz, 448 kbps, 6 ch (ENG)

M/I
General
Unique ID : 148592615536520901422073379397583063959 (0x6FC9E5933883E57172A1440F5EBD4B97)
Complete name : G:Видео_1Длинный уик-энд _2005_DVDRIP-AVC_[-=DoMiNo=-].mkv
Format : Matroska
Format version : Version 4 / Version 2
File size : 1.46 GiB
Duration : 1 h 26 min
Overall bit rate : 2 417 kb/s
Movie name : Длинный уик-энд
Deion : С тех пор, как Эду в руки попала видеокамера, он с ней не расставался. Сначала его называли чокнутым, но потом Эд нашел свое место в рекламной индустрии. Теперь он придумывает гениальную рекламу и приносит своему боссу миллионы. И все идет хорошо, пока Эд не расстается со своей девушкой. А нет подружки — нет секса. Нет секса — нет вдохновения. Нет вдохновения — нет работы! На преодоление творческого кризиса у парня всего один уик-энд. За эти выходные Эд должен найти девушку и придумать нечто выдающееся. На помощь парню приходит его брат Купер, у которого никогда не было проблем ни с сексом, ни с вдохновением.
Encoded date : UTC 2018-09-07 20:18:02
Writing application : mkvmerge v25.0.0 ('Prog Noir') 64-bit
Writing library : libebml v1.3.6 + libmatroska v1.4.9 / Lavf57.71.100
Attachments : poster.jpg
ACTORS : Chris Klein, Brendan Fehr, Chandra West, Cobie Smulders, Paul Campbell, Craig Fairbrass, Evangeline Lilly, Chelan Simmons, Angelika Libera, Nicole McKay, C. Ernst Harth, Andy Thompson, Alejandro Rae, Kristina Copeland, Roger Haskett, Erica Cerra, Kristi Angus, Michele Bogdanow, Tracy Trueman, Natalia Safran
COUNTRY : Canada
DATE : 2005-08-05
DIRECTOR : Pat Holden
ENCODING_INFO : DVD > MKV Пользовательский / MPEG2 > X264 CRF 18.0 Пользовательский_CRF / AC3 > COPY Безопасное
GENRE : комедия, мелодрама
MEDIA_TYPE : 9
ORIGINAL_TITLE : The Long Weekend
PUBLISHER : Brightlight Pictures
RATING : 6.00

Video
ID : 1
Format : AVC
Format/Info : Advanced Video Codec
Format profile : High@L4.1
Format settings : CABAC / 14 Ref Frames
Format settings, CABAC : Yes
Format settings, ReFrames : 14 frames
Codec ID : V_MPEG4/ISO/AVC
Duration : 1 h 26 min
Bit rate : 1 519 kb/s
Width : 720 pixels
Height : 388 pixels
Display aspect ratio : 1.85:1
Frame rate mode : Constant
Frame rate : 25.000 FPS
Color space : YUV
Chroma subsampling : 4:2:0
Bit depth : 8 bits
Scan type : Progressive
Bits/(Pixel*Frame) : 0.217
Stream size : 940 MiB (63%)
Title : RIP_BY_-=DoMiNo=-
Writing library : x264 core 155 r2901M 7d0ff22
Encoding settings : cabac=1 / ref=14 / deblock=1:-3:-3 / analyse=0x3:0x133 / me=umh / subme=11 / psy=1 / psy_rd=1.00:0.10 / mixed_ref=1 / me_range=32 / chroma_me=1 / trellis=2 / 8x8dct=1 / cqm=0 / deadzone=21,11 / fast_pskip=1 / chroma_qp_offset=-3 / threads=6 / lookahead_threads=1 / sliced_threads=0 / nr=0 / decimate=1 / interlaced=0 / bluray_compat=0 / constrained_intra=0 / bframes=12 / b_pyramid=2 / b_adapt=2 / b_bias=0 / direct=3 / weightb=1 / open_gop=0 / weightp=2 / keyint=250 / keyint_min=25 / scenecut=40 / intra_refresh=0 / rc=crf / mbtree=0 / crf=18.0 / qcomp=0.60 / qpmin=0 / qpmax=69 / qpstep=4 / ip_ratio=1.40 / pb_ratio=1.30 / aq=1:1.00
Language : English
Default : Yes
Forced : No
Color range : Limited

Audio #1
ID : 2
Format : AC-3
Format/Info : Audio Coding 3
Commercial name : Dolby Digital
Codec ID : A_AC3
Duration : 1 h 26 min
Bit rate mode : Constant
Bit rate : 448 kb/s
Channel(s) : 6 channels
Channel positions : Front: L C R, Side: L R, LFE
Sampling rate : 48.0 kHz
Frame rate : 31.250 FPS (1536 SPF)
Bit depth : 16 bits
Compression mode : Lossy
Stream size : 277 MiB (19%)
Title : DUB
Language : Russian
Service kind : Complete Main
Default : Yes
Forced : No

Audio #2
ID : 3
Format : AC-3
Format/Info : Audio Coding 3
Commercial name : Dolby Digital
Codec ID : A_AC3
Duration : 1 h 26 min
Bit rate mode : Constant
Bit rate : 448 kb/s
Channel(s) : 6 channels
Channel positions : Front: L C R, Side: L R, LFE
Sampling rate : 48.0 kHz
Frame rate : 31.250 FPS (1536 SPF)
Bit depth : 16 bits
Compression mode : Lossy
Stream size : 277 MiB (19%)
Title : ENG
Language : English
Service kind : Complete Main
Default : No
Forced : No

Text
ID : 4
Format : UTF-8
Codec ID : S_TEXT/UTF8
Codec ID/Info : UTF-8 Plain Text
Duration : 1 h 18 min
Bit rate : 111 b/s
Count of elements : 1196
Stream size : 64.1 KiB (0%)
Title : RUS
Language : Russian
Default : No
Forced : No

Menu
00:00:00.000 : :Глава 1
00:18:01.200 : :Глава 2
00:30:34.200 : :Глава 3
00:38:19.200 : :Глава 4
00:44:51.000 : :Глава 5
00:57:51.000 : :Глава 6
01:12:04.200 : :Глава 7
01:18:24.000 : :Глава 8
Скриншоты
 

Вложения

  • 15,5 KB Просмотры: 1
    Личеров 0
    Сидеров 0
    Файлов 1
    Объем 1,5 GB

Привет!

Мы группа людей которые решили помочь другим в решении их проблем, а так же пользователям с поиском самых свежих и качественных инфопродуктов. За 4 с небольшим месяца мы создали этот форум на который заходят ежедневно тысячи человек и посещаемость постоянно растёт. Мы создали панель лицензирования для защиты PHP скриптов от воровства и SEO панель для мониторинга наших сайтов и выбора верной стратегии их развития. Мы надеемся что то что мы создали пригодится Вам и возможно Вы поможете нам развиваться и совершенствоваться вместе с Вами.

Статистика форума

Темы
406.538
Сообщения
464.648
Пользователи
83.256
Новый пользователь
Asasa33

Приложения форума для iOS и Android


У ркн там нет власти ;)
Приватные разговоры
Помощь Пользователи
    Вы не присоединились ни к одной комнате.